<?xml version="1.0" standalone="no"?>
<!DOCTYPE svg PUBLIC "-//W3C//DTD SVG 1.1//EN" "http://www.w3.org/Graphics/SVG/1.1/DTD/svg11.dtd" >
<svg xmlns="http://www.w3.org/2000/svg">
<metadata>Generated by IcoMoon</metadata>
<defs>
<font id="lusion" horiz-adv-x="1024">
<font-face units-per-em="1024" ascent="960" descent="-64" />
<missing-glyph horiz-adv-x="1024" />
<glyph unicode="&#x20;" horiz-adv-x="512" d="" />
<glyph unicode="&#xe900;" glyph-name="download" d="M935.88 714.783l-423.831-423.933-423.831 423.984c-20.207 20.207-52.894 20.207-73.101 0-20.156-20.207-20.156-52.945 0-73.152l460.358-460.511c20.156-20.207 52.894-20.207 73.050 0l460.358 460.507c20.156 20.207 20.156 52.996 0 73.203-20.105 20.109-52.848 20.109-73.003-0.098z" />
<glyph unicode="&#xe901;" glyph-name="back" d="M245.060 411.451l460.488-460.335c20.206-20.155 52.943-20.155 73.2 0 20.206 20.155 20.206 52.892 0 73.047l-423.963 423.81 423.912 423.81c20.206 20.155 20.206 52.892 0 73.098-20.206 20.155-52.994 20.155-73.2 0l-460.488-460.331c-19.896-19.947-19.896-53.198 0.051-73.098z" />
<glyph unicode="&#xe902;" glyph-name="magnifying-glass" d="M990 27.6l-235.6 235.6c58.4 71.2 93.6 162.4 93.6 261.8 0 228-185 413-413 413-228.2 0-413-185-413-413s184.8-413 413-413c99.4 0 190.4 35 261.6 93.4l235.6-235.4c16-16 41.8-16 57.8 0 16 15.8 16 41.8 0 57.6zM435 194.2c-182.6 0-331 148.4-331 330.8s148.4 331 331 331c182.4 0 331-148.6 331-331s-148.6-330.8-331-330.8z" />
<glyph unicode="&#xe903;" glyph-name="upload" d="M548.521 714.161c-19.899 19.899-53.144 19.899-73.094 0l-460.312-459.134c-20.154-20.154-20.154-52.838 0-72.941 20.154-20.154 52.889-20.154 73.043 0l423.84 422.662 423.789-422.713c20.205-20.154 52.889-20.154 73.094 0 20.154 20.154 20.154 52.838 0 72.941l-460.359 459.185z" />
<glyph unicode="&#xe904;" glyph-name="next" d="M778.935 484.549l-460.488 460.335c-20.206 20.155-52.943 20.155-73.2 0-20.206-20.155-20.206-52.892 0-73.047l423.963-423.81-423.912-423.81c-20.206-20.155-20.206-52.892 0-73.098 20.206-20.155 52.994-20.155 73.2 0l460.488 460.335c19.9 19.947 19.9 53.198-0.051 73.093z" />
<glyph unicode="&#xe905;" glyph-name="star" d="M237.824 304.555l-54.059-331.392c-4.309-26.325 23.808-46.080 47.061-33.152l281.173 155.392 281.173-155.435c23.040-12.8 51.413 6.571 47.061 33.152l-54.059 331.392 228.693 234.411c18.133 18.56 7.723 50.048-18.048 53.973l-314.795 48.085-141.099 300.544c-10.539 22.443-47.36 22.443-57.899 0l-141.056-300.501-314.795-48.085c-25.856-3.968-36.181-35.413-18.048-53.973z" />
<glyph unicode="&#xe906;" glyph-name="star-1" d="M820.544-64.032c-4.406 0-8.844 0.908-13 2.754l-295.562 131.588-295.562-131.588c-10.937-4.852-23.687-3.161-33 4.288-9.344 7.481-13.719 19.563-11.375 31.301l65.187 326.559-227.875 228.275c-8.344 8.357-11.406 20.627-8 31.958 3.406 11.3 12.781 19.813 24.344 22.13l326.625 65.45 130.406 293.913c10.313 23.162 48.188 23.162 58.5 0l130.406-293.913 326.625-65.45c11.562-2.316 20.937-10.83 24.344-22.13 3.406-11.331 0.344-23.601-8-31.958l-227.875-228.275 65.187-326.559c2.344-11.738-2.031-23.82-11.375-31.301-5.781-4.633-12.875-7.043-20-7.043zM511.981 137.45c4.437 0 8.875-0.908 13-2.754l252.063-112.244-56.438 282.676c-2.094 10.517 1.188 21.378 8.75 28.953l197.719 198.039-284.219 56.967c-10.188 2.035-18.75 8.889-22.969 18.405l-107.907 243.174-107.907-243.174c-4.219-9.515-12.781-16.37-22.969-18.405l-284.219-56.967 197.719-198.039c7.562-7.575 10.844-18.436 8.75-28.953l-56.438-282.676 252.063 112.244c4.125 1.847 8.562 2.754 13 2.754z" />
<glyph unicode="&#xe907;" glyph-name="right-quotes-symbol" d="M1023.77 646.23c0 0.111 0.012 0.222 0.012 0.333 0 134.626-109.133 243.759-243.759 243.759s-243.757-109.131-243.757-243.759c0-134.628 109.143-243.759 243.759-243.759 27.668 0 54.152 4.823 78.934 13.321-54.842-314.611-300.179-517.503-72.754-350.518 252.183 185.167 237.848 573.519 237.566 580.624zM243.759 402.805c27.668 0 54.152 4.823 78.946 13.321-54.856-314.611-300.193-517.503-72.766-350.518 252.183 185.165 237.85 573.517 237.566 580.622 0 0.111 0.012 0.222 0.012 0.333 0 134.626-109.131 243.759-243.757 243.759-134.628 0-243.759-109.131-243.759-243.759s109.143-243.757 243.759-243.757z" />
<glyph unicode="&#xe908;" glyph-name="left-quotes-sign" d="M0.218 249.438c0-134.628 109.131-243.759 243.757-243.759 134.628 0 243.759 109.131 243.759 243.759s-109.131 243.757-243.759 243.757c-27.668 0-54.152-4.823-78.946-13.323 54.856 314.613 300.193 517.503 72.766 350.52-252.183-185.165-237.848-573.505-237.566-580.622 0-0.111-0.012-0.21-0.012-0.333zM536.483 249.438c0-134.628 109.131-243.759 243.759-243.759s243.759 109.131 243.759 243.759-109.133 243.757-243.761 243.757c-27.67 0-54.152-4.823-78.946-13.323 54.856 314.613 300.193 517.503 72.766 350.52-252.183-185.165-237.85-573.505-237.566-580.622 0-0.111-0.012-0.21-0.012-0.333z" />
<glyph unicode="&#xe909;" glyph-name="plus" d="M972.797 499.2h-409.594v409.603c0 28.256-22.941 51.197-51.206 51.197-28.256 0-51.197-22.941-51.197-51.197v-409.603h-409.603c-28.256 0-51.197-22.941-51.197-51.197 0-28.266 22.941-51.206 51.197-51.206h409.603v-409.594c0-28.266 22.941-51.206 51.197-51.206 28.266 0 51.206 22.941 51.206 51.206v409.594h409.594c28.266 0 51.206 22.941 51.206 51.206 0 28.256-22.941 51.197-51.206 51.197z" />
<glyph unicode="&#xe90a;" glyph-name="play" d="M839.851 543.087l-568.792 389.393c-26.268 17.995-52.735 27.52-74.734 27.52-42.531 0-68.84-34.134-68.84-91.27v-841.592c0-57.070 26.276-91.138 68.708-91.138 22.032 0 48.076 9.532 74.402 27.578l569.057 389.385c36.596 25.083 56.863 58.835 56.863 95.083 0.008 36.223-20.026 69.968-56.664 95.042z" />
<glyph unicode="&#xe90b;" glyph-name="pinterest" d="M525.92 960c-280.653 0-429.907-179.848-429.907-375.953 0-90.948 50.818-204.361 132.166-240.331 12.353-5.568 19.073-3.2 21.825 8.256 2.432 8.704 13.121 50.626 18.305 70.403 1.6 6.336 0.768 11.841-4.352 17.793-27.009 31.233-48.45 88.132-48.45 141.51 0 136.774 108.741 269.58 293.773 269.58 160.007 0 271.948-103.941 271.948-252.619 0-168.008-88.9-284.237-204.425-284.237-63.939 0-111.557 50.178-96.452 112.261 18.241 73.923 54.018 153.415 54.018 206.729 0 47.81-27.009 87.364-82.18 87.364-65.091 0-117.893-64.451-117.893-150.983 0-54.978 19.457-92.1 19.457-92.1s-64.387-260.108-76.355-308.686c-20.225-82.244 2.752-215.434 4.736-226.89 1.216-6.336 8.32-8.32 12.289-3.136 6.336 8.32 84.164 119.365 105.989 199.625 7.936 29.249 40.514 147.847 40.514 147.847 21.441-38.722 83.332-71.171 149.255-71.171 196.105 0 337.807 172.36 337.807 386.257-0.704 205.065-176.2 358.48-402.066 358.48z" />
<glyph unicode="&#xe90c;" glyph-name="paypal" d="M219.758 509.262c-4.152 2.72-10.334 4.097-18.457 4.097l-6.944-0.036c-4.551 0.036-9.21-3.626-10.099-8.050l-6.4-27.558c-0.997-4.46 1.849-8.104 6.454-8.104h5.185c11.513 0 20.433 2.339 26.833 7.053 6.4 4.678 9.682 11.331 9.537 19.943 0.036 5.693-2.012 9.954-6.11 12.655zM333.072 445.752c-1.251-0.036-10.842-1.124-15.701-1.722-5.439-0.78-10.153-1.867-13.978-3.155l-8.993-6.128c-2.103-2.647-3.1-6.019-3.1-10.352l4.097-7.941c2.774-1.559 6.871-2.321 12.093-2.321 3.445 0 7.18 0.834 11.096 2.429l8.34 4.297 3.3 4.388c1.305 5.113 4.007 16.48 4.315 17.895l-1.469 2.611zM997.639 779.803h-971.277c-14.577 0-26.361-11.803-26.361-26.361v-610.883c0-14.559 11.785-26.38 26.361-26.38h971.277c14.577 0 26.361 11.803 26.361 26.361v610.901c0 14.559-11.785 26.361-26.361 26.361zM244.469 457.881c-14.432-10.624-34.52-15.918-60.483-15.955h-6.056c-4.659 0-9.21-3.662-10.171-8.050l-7.288-31.51c-1.033-4.496-5.584-8.086-10.189-8.086h-21.212c-4.605 0-7.488 3.699-6.4 8.086l29.824 129.867c1.088 4.46 5.602 8.032 10.207 8.104l44.31 0.018c9.573-0.091 17.858-0.671 25.038-1.976 7.071-1.342 13.235-3.59 18.457-6.781 5.004-3.155 9.047-7.379 11.585-12.492 2.828-5.113 4.079-11.513 4.079-19.127 0-17.405-7.161-31.474-21.702-42.099zM376.131 474.452l-0.798-5.457-15.483-66.937c-0.907-4.025-4.895-7.452-9.12-7.941l-0.29-0.109h-19.726l-0.073 0.073c-4.043 0.381-6.545 3.807-5.675 7.941v0.036l0.036 0.127 0.798 3.408-0.109 0.127-7.995-5.276-8.703-4.859-10.262-3.517c-3.155-0.761-7.597-1.215-13.326-1.215-9.047 0-16.625 2.484-22.355 7.615-5.693 5.24-8.63 11.93-8.63 20.125 0 8.703 2.012 16.063 6.056 22.192 4.188 6.092 10.171 10.842 18.257 14.395 7.524 3.427 16.571 5.965 26.905 7.397 10.552 1.523 19.254 2.629 31.311 3.39l3.046 1.886 0.381 2.992c0 4.605-2.139 7.778-6.4 9.645-4.315 1.813-10.806 2.72-19.291 2.72-5.765 0.073-13.018-1.106-19.889-2.665-7.198-1.632-9.174-2.701-12.691-3.753-1.632-0.562-5.566-0.834-4.097 5.983l2.593 10.679c0 0 1.269 8.068 9.337 9.827 3.898 0.87 4.514 1.033 10.878 2.012 8.612 1.324 17.133 1.994 25.673 1.994 17.278 0 29.933-2.248 37.929-6.763 8.032-4.496 12.129-11.531 12.093-20.977l-0.381-5.095zM410.235 342.572l-21.974-0.036c-4.569 0-6.074 3.626-3.282 8.086l18.801 32.78c0 0 1.505 1.867 0.163 12.564-2.901 19.327-17.333 101.493-17.333 101.493-1.052 4.442 1.777 8.086 6.346 8.086l19.019 0.036c5.82 0 10.497-3.825 11.549-8.322l9.464-56.984 3.517-0.036c2.955 5.24 33.342 57.382 33.342 57.382 2.901 4.388 8.775 8.104 13.344 8.104 0 0 20.433-0.054 25.455 0 7.542 0.109-0.58-12.111-0.58-12.111l-84.56-142.994c-2.72-4.46-8.739-8.050-13.271-8.050zM629.92 457.319c-14.486-10.57-34.665-15.918-60.628-15.918h-6.056c-4.569 0.073-9.138-3.644-10.189-8.032l-7.18-31.565c-1.052-4.406-5.693-8.032-10.189-7.977l-21.267-0.054c-4.514-0.018-7.488 3.644-6.4 8.050l29.842 129.94c1.088 4.406 5.548 7.995 10.153 8.068l44.365 0.036c9.518-0.036 17.895-0.707 24.929-1.958 7.161-1.305 13.326-3.554 18.475-6.763 5.058-3.245 9.029-7.397 11.676-12.546 2.72-5.076 4.043-11.495 4.079-19.109 0-17.387-7.27-31.42-21.611-42.171zM761.509 474.361l-0.78-5.493-15.52-66.883c-0.87-4.043-4.877-7.47-9.047-7.977l-0.29-0.109h-3.046c-4.388 0-13.634 0-16.299 0h-0.381l-0.036 0.109c-4.116 0.381-6.654 3.789-5.657 7.941l-0.036 0.054 0.091 0.073 0.707 3.408-0.127 0.163-7.941-5.348-8.757-4.841-10.244-3.463c-3.155-0.816-7.615-1.16-13.29-1.251-9.065 0-16.571 2.575-22.337 7.669-5.729 5.185-8.684 11.912-8.684 20.143 0 8.648 2.012 16.045 6.074 22.137 4.152 6.092 10.225 10.824 18.239 14.414 7.578 3.445 16.68 5.947 26.96 7.397 10.479 1.523 19.182 2.629 31.329 3.372l3.046 1.922 0.326 2.992c0 4.569-2.103 7.778-6.418 9.627-4.315 1.831-10.806 2.738-19.254 2.738-5.802 0.036-13.072-1.124-19.925-2.665-7.161-1.668-9.101-2.701-12.601-3.753-1.777-0.526-5.602-0.834-4.152 5.983l2.593 10.661c0 0 1.215 8.086 9.319 9.827 3.934 0.852 4.569 1.052 10.914 1.976 8.558 1.378 17.133 2.049 25.673 2.049 17.206 0 29.842-2.284 37.91-6.799 8.086-4.496 12.129-11.495 12.129-20.941l-0.49-5.131zM829.498 530.692l-28.428-128.743-0.997-1.523c-1.686-3.626-5.276-6.563-9.174-6.563h-19.726l-0.363 0.453c-3.753 0.58-6.201 3.608-5.312 7.56l-0.036 0.091 0.852 3.717 26.579 120.784 0.943 4.206 1.070 1.65c1.722 3.554 5.24 6.436 9.138 6.436h18.982c4.623 0 7.397-3.608 6.418-8.032l0.054-0.036zM867.173 544.616h-7.107v-9.446l0.054-2.538 0.49-1.704 1.124-1.088 2.176-0.344 1.777 0.254 1.324 0.399h0.163v-3.1l-2.121-0.417-2.012-0.163-4.823 1.722-1.65 5.439v10.987h-2.393v2.937h2.393v5.892h3.499v-5.892h7.107v-2.937zM901.53 540.283v-13.362h-3.427v11.785l-0.218 2.52-0.453 1.994-1.197 1.178-2.303 0.417-2.883-0.743-2.955-1.867 0.054-1.015 0.036-1.088v-13.217h-3.445v11.785l-0.145 2.556-0.49 1.976-1.16 1.178-2.339 0.417-2.846-0.707-2.883-1.795v-15.411h-3.408v20.65h3.408v-2.303l3.3 2.103 3.408 0.761 3.59-0.852 2.212-2.466 3.807 2.556 3.717 0.761 5.022-2.049 1.632-5.765h-0.036zM718.468 445.643c-1.251 0.018-10.806-1.106-15.592-1.722-5.493-0.78-10.189-1.849-13.978-3.155-3.88-1.523-7.035-3.572-9.083-6.128-2.031-2.647-3.046-6.019-3.046-10.371l4.152-7.923c2.647-1.577 6.69-2.339 12.075-2.339 3.39 0 7.125 0.834 11.023 2.411l8.286 4.297 3.408 4.388c1.269 5.167 4.025 16.499 4.242 17.913l-1.487 2.629zM605.045 508.773c-4.188 2.738-10.28 4.079-18.42 4.116l-6.908-0.036c-4.569 0.036-9.21-3.662-10.153-8.068l-6.418-27.54c-1.033-4.424 1.922-8.122 6.509-8.086h5.276c11.476 0 20.378 2.357 26.797 6.962 6.346 4.732 9.573 11.331 9.537 20.016-0.109 5.657-2.085 9.917-6.219 12.637z" />
<glyph unicode="&#xe90d;" glyph-name="mastercard" d="M272.879 492.020c-19.182 0-33.886-6.164-33.886-6.164l-4.061-24.113c0 0 12.129 4.931 30.495 4.931 10.425 0 18.040-1.16 18.040-9.627 0-5.149-0.925-7.053-0.925-7.053s-8.213 0.671-12.020 0.671c-24.204 0-49.623-10.298-49.623-41.464 0-24.548 16.662-30.151 27.014-30.151 19.744 0 28.265 12.8 28.7 12.836l-0.925-10.697h24.639l10.987 77.054c-0.018 32.725-28.537 33.777-38.436 33.777zM259.064 402.493c-8.684 0-10.951 6.618-10.951 10.57 0 7.651 4.152 16.861 24.657 16.861 4.786-0.018 5.294-0.508 6.092-0.653 0.544-4.714-2.937-26.778-19.798-26.778zM361.863 466.185c3.934 0 19.109-1.251 19.109-1.251l3.535 24.693c0 0-9.827 2.194-25.818 2.194-20.705 0-41.7-8.267-41.7-36.533 0-32.054 35.028-28.791 35.028-42.316 0-8.993-9.79-9.736-17.333-9.736-13.072 0-24.82 4.46-24.857 4.279l-3.735-24.494c0.671-0.181 7.923-3.408 31.402-3.408 6.291 0 42.316-1.632 42.316 35.554 0 34.774-33.342 27.903-33.342 41.881 0 6.962 5.421 9.138 15.393 9.138zM420.732 463.030h14.812l3.572 26.325h-13.96l2.846 16.317h-27.975c-0.616-0.598-16.517-92.029-16.517-103.125 0-16.517 9.265-23.841 22.3-23.714 10.207 0.073 18.167 2.901 20.977 3.68l3.499 23.787c-1.922 0-4.732-0.834-7.216-0.834-9.736 0-10.806 5.203-10.189 9.029l7.85 48.535zM537.981 615.76h-49.931c-6.708-9.065-13.018-18.71-18.729-28.138h89.074c-6.182 9.827-13.018 19.218-20.415 28.138zM927.565 299.241c-0.544 0.816-0.997 1.432-1.36 1.813-0.199 0.181-0.453 0.381-0.78 0.471 0.78 0.054 1.432 0.344 1.904 0.834 0.453 0.49 0.707 1.070 0.707 1.741 0 0.471-0.145 0.925-0.417 1.342s-0.671 0.725-1.16 0.888c-0.453 0.181-1.233 0.272-2.303 0.272h-3.155v-9.156h1.487v3.88h0.852c0.508 0 0.925-0.109 1.16-0.326 0.381-0.308 0.925-1.015 1.559-2.121l0.798-1.45h1.831l-1.124 1.813zM924.265 302.541h-1.813v2.756h1.704c0.707 0 1.178-0.054 1.45-0.163 0.29-0.109 0.471-0.272 0.635-0.471 0.145-0.218 0.218-0.453 0.218-0.707 0-0.417-0.145-0.78-0.453-1.033-0.308-0.236-0.907-0.381-1.741-0.381zM573.534 560.009h-119.787c-7.651-14.486-12.727-25.437-14.16-28.156h145.296c-3.282 9.682-7.053 19.055-11.35 28.156zM186.615 514.303l-27.576-81.768-1.432 81.768h-40.829l-22.373-133.24h26.996l17.024 100.442 2.502-100.442h19.273l35.952 100.442-15.937-100.442h28.646l22.065 133.24zM726.463 492.020c-19.218 0-33.904-6.164-33.904-6.164l-4.079-24.113c0 0 12.147 4.931 30.495 4.931 10.425 0 18.058-1.16 18.058-9.627 0-5.149-0.961-7.053-0.961-7.053s-8.195 0.671-12.039 0.671c-24.186 0-49.586-10.298-49.586-41.464 0-24.548 16.68-30.151 27.014-30.151 19.726 0 28.247 12.8 28.7 12.836l-0.925-10.697h24.621l10.987 77.054c0.054 32.725-28.483 33.777-38.382 33.777zM712.684 402.493c-8.703 0-10.951 6.618-10.951 10.57 0 7.651 4.152 16.861 24.657 16.861 4.768-0.018 5.276-0.508 6.092-0.653 0.526-4.714-2.973-26.778-19.798-26.778zM928.453 393.337c-0.743 1.378-1.831 2.429-3.191 3.155-1.342 0.743-2.72 1.106-4.17 1.106-1.396-0.018-2.792-0.381-4.17-1.106-1.36-0.725-2.411-1.777-3.173-3.155-0.761-1.36-1.142-2.774-1.142-4.242s0.381-2.865 1.142-4.206c0.743-1.342 1.795-2.411 3.137-3.173 1.36-0.743 2.756-1.124 4.206-1.124 1.487 0 2.901 0.381 4.224 1.124 1.342 0.761 2.393 1.831 3.137 3.173 0.78 1.342 1.124 2.738 1.124 4.206 0 1.505-0.363 2.919-1.124 4.242zM927.275 385.595c-0.616-1.124-1.487-1.976-2.629-2.647-1.124-0.616-2.284-0.943-3.499-0.943-1.233 0-2.411 0.326-3.517 0.943-1.142 0.635-1.994 1.505-2.647 2.647s-0.943 2.303-0.943 3.517c0 1.215 0.308 2.393 0.979 3.535 0.635 1.124 1.487 1.994 2.647 2.629s2.303 0.907 3.481 0.907 2.339-0.29 3.445-0.907c1.16-0.635 2.012-1.487 2.647-2.629s0.979-2.321 0.979-3.535c0-1.215-0.308-2.393-0.943-3.517zM923.975 386.212c-0.526 0.852-0.997 1.45-1.342 1.813-0.218 0.199-0.453 0.363-0.78 0.471 0.78 0.054 1.414 0.344 1.886 0.834 0.453 0.471 0.725 1.088 0.725 1.741 0 0.453-0.145 0.925-0.435 1.342-0.29 0.399-0.671 0.707-1.124 0.888s-1.251 0.272-2.321 0.272h-3.191v-9.138h1.487v3.88h0.852c0.526 0 0.943-0.109 1.197-0.308 0.381-0.326 0.888-1.015 1.559-2.158l0.78-1.432h1.831l-1.124 1.795zM920.712 389.566h-1.795v2.774h1.668c0.725 0 1.197-0.054 1.487-0.145 0.236-0.127 0.453-0.254 0.598-0.49 0.163-0.236 0.236-0.435 0.236-0.743 0-0.399-0.163-0.743-0.435-0.997-0.344-0.308-0.907-0.399-1.759-0.399zM821.539 490.697c-12.528 0-21.829-17.097-21.829-17.097l2.502 15.719h-26.071l-17.459-108.456h28.718c8.177 46.341 9.663 83.925 29.081 77.054 3.427 17.913 6.726 24.857 10.443 32.417 0-0.018-1.741 0.363-5.385 0.363zM893.697 514.158l-6.037-37.439c0 0-10.516 14.559-27.014 14.559-25.654-0.018-47.012-30.93-47.012-66.429 0-22.935 11.404-45.398 34.683-45.398 16.771 0 26.053 11.694 26.053 11.694l-1.215-9.99h27.214l21.394 133.058-28.066-0.054zM858.216 406.645c-10.080 0-14.794 8.449-14.794 21.72 0 21.702 9.736 36.007 22.046 36.007 10.044-0.018 15.211-6.926 15.211-23.207 0-14.776-7.307-34.52-22.463-34.52zM997.639 779.803h-971.277c-14.577 0-26.361-11.803-26.361-26.361v-610.901c0-14.559 11.785-26.361 26.361-26.361h971.277c14.577 0 26.361 11.803 26.361 26.361v610.901c0 14.559-11.785 26.361-26.361 26.361zM932.061 297.917c-0.761-1.378-1.795-2.429-3.137-3.173s-2.756-1.124-4.206-1.124c-1.487 0-2.901 0.381-4.242 1.124-1.324 0.743-2.375 1.795-3.155 3.173-0.743 1.324-1.124 2.738-1.124 4.206s0.381 2.865 1.142 4.242c0.743 1.378 1.831 2.411 3.173 3.155 1.36 0.707 2.738 1.088 4.188 1.088 1.432 0 2.81-0.381 4.152-1.088 1.36-0.743 2.429-1.777 3.173-3.155 0.761-1.378 1.124-2.792 1.124-4.242s-0.326-2.919-1.088-4.206zM951.062 447.982c0.036-145.133-117.557-262.835-262.708-262.871-67.88-0.018-129.777 25.709-176.408 67.971-46.631-42.189-108.401-67.898-176.172-67.898-145.061 0-262.799 117.72-262.799 262.799 0 144.499 116.814 261.874 261.113 262.817 0.562 0 1.124 0 1.686 0 67.771 0 129.559-25.709 176.19-67.898 46.613 42.207 108.437 67.934 176.263 67.952 145.151 0.054 262.835-117.593 262.871-262.744-0.036-0.036-0.036-0.054-0.036-0.127zM485.040 281.818c8.322-10.189 17.133-19.907 26.869-28.718 0.218 0.199 0.453 0.381 0.671 0.562 0 0-0.018 0-0.018 0.018h0.054c9.573 8.721 18.511 18.112 26.688 28.138h-54.264zM520.829 426.062c0 0 3.68 18.13 3.68 25.509 0 18.439-9.174 40.92-39.887 40.92-28.138-0.018-48.97-30.332-48.97-64.598 0-39.542 26.090-48.934 48.335-48.934 20.524 0 29.552 4.605 29.552 4.605l4.931 26.978c0 0-15.61-6.89-29.716-6.89-30.042 0-24.784 22.409-24.784 22.409h56.857zM484.714 467.381c15.792 0 12.873-17.75 12.873-19.164h-31.057c0 1.831 2.937 19.164 18.185 19.164zM652.057 488.775c14.232 0 25.673-7.995 25.673-7.995l4.569 29.643c0 0-16.934 6.853-31.51 6.853-32.29 0-63.71-28.029-63.71-80.662 0-34.901 16.952-57.944 50.348-57.944 9.428 0 24.476 3.825 24.476 3.825l5.004 30.531c0 0-13.707-6.871-23.134-6.871-19.871 0.018-27.83 15.175-27.83 31.42 0 33.052 17.079 51.2 36.116 51.2zM449.958 337.024c4.551-9.772 9.845-19.073 15.52-28.138h93.244c5.657 9.029 10.751 18.42 15.302 28.138h-124.066zM586.57 490.661c-12.528 0-21.811-17.097-21.811-17.097l2.52 15.719h-26.053l-17.459-108.456h28.718c8.141 46.323 9.663 83.925 29.081 77.054 3.408 17.931 6.69 24.875 10.407 32.453 0 0-1.741 0.363-5.403 0.326z" />
<glyph unicode="&#xe90e;" glyph-name="visa-pay-logo" d="M997.639 779.803h-971.277c-14.577 0-26.361-11.803-26.361-26.361v-610.901c0-14.559 11.785-26.361 26.361-26.361h971.277c14.577 0 26.361 11.803 26.361 26.361v610.901c0 14.559-11.785 26.361-26.361 26.361zM79.284 579.263h109.29c14.74-0.562 26.615-5.258 30.713-21.013l23.769-114.312c-23.352 59.794-79.628 109.543-164.678 130.139l0.907 5.185zM211.526 318.55l-63.13 215.678c45.38-29.045 84.034-75.132 97.65-107.205l7.361-26.633 69.040 176.39h74.697l-111.012-258.176-74.606-0.054zM452.043 318.368h-70.491l44.075 258.683h70.527l-44.111-258.683zM574.713 314.488c-31.601 0.326-62.042 6.581-78.541 13.815l9.917 57.89 9.083-4.116c23.152-9.663 38.146-13.58 66.375-13.58 20.252 0 41.954 7.923 42.153 25.256 0.127 11.331-9.083 19.418-36.533 32.109-26.76 12.365-62.187 33.106-61.752 70.255 0.381 50.275 49.478 85.358 119.152 85.358 27.304 0 49.188-5.62 63.148-10.86l-9.518-56.077-6.364 2.992c-12.981 5.222-29.679 10.262-52.759 9.899-27.594 0-40.394-11.495-40.394-22.246-0.145-12.111 14.939-20.088 39.597-32.091 40.666-18.457 59.467-40.848 59.214-70.273-0.544-53.666-48.644-88.331-122.778-88.331zM880.208 318.259c0 0-6.436 29.734-8.576 38.763-10.262 0-82.203 0.109-90.289 0.109-2.738-6.98-14.812-38.871-14.812-38.871h-74.026l104.666 237.054c7.433 16.843 20.034 21.466 36.931 21.466h54.463l57.056-258.502-65.414-0.018zM843.821 484.714l-4.75 22.3c-3.59-9.736-9.772-25.382-9.373-24.693 0 0-22.282-57.419-28.084-72.304h58.543c-2.828 12.963-16.335 74.697-16.335 74.697z" />
<glyph unicode="&#xe90f;" glyph-name="american-express-logo" d="M997.639 779.803h-971.277c-14.577 0-26.361-11.803-26.361-26.361v-610.883c0-14.559 11.785-26.38 26.361-26.38h971.277c14.577 0 26.361 11.803 26.361 26.361v610.901c0 14.559-11.785 26.361-26.361 26.361zM251.903 476.592l-3.046 6.908v-0.381c0-8.866-7.198-16.063-16.063-16.063h-47.302c-6.527 0-12.383 3.934-14.867 9.954l-4.841 11.748h-26.942l-4.913-11.821c-2.466-5.983-8.34-9.899-14.794-9.899h-25.274c-5.403 0-10.443 2.72-13.416 7.216-2.955 4.533-3.481 10.225-1.342 15.175l41.627 97.305c2.52 5.892 8.34 9.736 14.776 9.736h34.52c6.436 0 12.22-3.825 14.776-9.718l8.721-20.342v13.978c0 8.866 7.18 16.063 16.063 16.063h37.983c6.237 0 11.948-3.662 14.595-9.337l15.211-33.033 13.815 32.562c2.502 5.947 8.34 9.808 14.758 9.808h38.763c3.263 0 6.11-1.215 8.666-2.883 2.538 1.668 5.385 2.883 8.666 2.883h77.67c3.010 0 5.675-1.052 8.050-2.484 2.411 1.432 5.058 2.484 8.068 2.484h53.484c13.833 0 25.274-0.49 36.206-6.799 1.106-0.671 1.904-1.523 2.901-2.248 2.611 5.294 7.977 9.047 14.305 9.047h23.733c8.032 0 14.414-5.983 15.592-13.652 10.407 9.011 24.585 13.652 43.658 13.652h22.5c3.572 0 6.926-1.178 9.591-3.191 2.701 2.031 6.056 3.191 9.609 3.191h34.828c6.418 0 12.202-3.844 14.758-9.736l8.539-19.98v13.652c0 8.866 7.198 16.063 16.082 16.063h35.408c5.639 0 10.842-2.937 13.743-7.76l11.059-18.33v10.044c0 8.866 7.216 16.063 16.1 16.063h23.787c8.884 0 16.063-7.198 16.063-16.063v-97.305c0-8.866-7.216-16.063-16.063-16.063h-32.925c-5.675 0-10.878 2.937-13.797 7.76l-14.269 23.66v-15.356c0-8.866-7.216-16.063-16.063-16.063h-47.338c-6.473 0-12.292 3.898-14.831 9.881l-4.913 11.821h-26.797l-4.75-11.658c-2.411-6.074-8.322-10.062-14.831-10.062h-27.232c-10.352 0-28.882 1.867-42.099 12.945-1.505-7.325-7.669-12.945-15.447-12.945h-23.751c-2.629 0-5.040 0.798-7.27 1.94-2.194-1.142-4.569-1.94-7.216-1.94h-23.461c-8.829 0-16.009 7.125-16.082 15.937l-0.091 12.274 0.036 2.139c0 1.305 0.036 3.263-0.073 4.913-1.070 0.073-2.502 0.127-4.514 0.127h-8.866v-19.327c0-8.866-7.198-16.063-16.063-16.063h-23.279c-3.010 0-5.639 1.052-8.068 2.484-2.375-1.432-5.040-2.484-8.050-2.484h-77.67c-3.282 0-6.128 1.233-8.666 2.883-2.556-1.65-5.403-2.883-8.666-2.883h-23.841c-8.884 0-16.063 7.18-16.063 16.045v0.399l-3.082-6.89c-2.575-5.82-8.304-9.573-14.686-9.573h-20.433c-6.346 0-12.111 3.771-14.667 9.591zM893.661 299.567h-45.29c-6.636 0-12.31 4.043-14.776 9.772-8.829-6.255-20.505-9.772-34.955-9.772h-45.29c-2.556 0-4.841 0.707-6.98 1.741-2.121-1.033-4.424-1.741-6.962-1.741h-77.598c-2.593 0-4.968 0.707-7.107 1.813-2.158-1.070-4.496-1.813-7.071-1.813h-23.334c-8.902 0-16.082 7.198-16.082 16.063v14.142c0.036 1.378 0.036 3.481-0.073 5.203-1.070 0.073-2.575 0.145-4.714 0.145h-8.775v-19.49c0-8.884-7.198-16.063-16.063-16.063h-23.37c-8.902 0-16.082 7.198-16.082 16.063v24.73c-8.249-4.913-19.635-8.141-35.336-8.141h-12.927v-16.589c0-8.884-7.198-16.063-16.082-16.063h-45.199c-4.587 0-8.975 1.958-12.020 5.385l-16.843 18.964-17.75-19.218c-3.046-3.282-7.307-5.167-11.785-5.167h-92.12c-8.884 0-16.063 7.216-16.063 16.082v97.305c0 8.902 7.198 16.082 16.063 16.082h93.516c4.587 0 8.92-1.922 11.948-5.33l16.897-18.801 17.605 19.001c3.046 3.282 7.307 5.131 11.785 5.131h74.298c16.281 0 27.739-3.608 35.88-8.938 2.629 5.258 7.923 8.938 14.214 8.938h53.702c12.365 0 24.331-0.471 35.554-6.473 1.215-0.707 1.994-1.632 3.118-2.393 2.647 5.203 7.887 8.866 14.16 8.866h77.598c6.019 0 11.096-3.463 13.852-8.376 7.651 5.185 17.804 8.376 30.604 8.376h46.595c7.016 0 12.782-4.514 15.012-10.733 7.977 6.473 18.874 10.733 33.396 10.733h46.631c8.866 0 16.045-7.198 16.045-16.082v-20.705c0-5.675-2.901-10.661-7.343-13.525 0.127-0.145 0.308-0.308 0.471-0.471 7.977-8.195 11.603-18.312 11.603-31.909 0-29.262-19.635-46.776-52.56-46.74zM532.814 528.245c6.056 2.393 16.39 10.425 16.39 25.926 0 10.86-4.424 17.206-11.748 21.557-7.542 4.351-16.299 4.659-28.175 4.659h-53.484v-97.305h23.279v35.372h24.929c8.376 0 13.561-0.743 16.952-4.152 4.224-4.678 3.662-13.090 3.662-18.946l0.109-12.274h23.461v19.127c0 8.684-0.562 12.999-3.862 17.84-2.067 2.846-6.418 6.255-11.513 8.195zM518.817 540.501c-3.227-1.94-6.998-1.994-11.513-1.994h-28.265l0.018 21.593h28.646c4.025 0 8.267-0.199 11.023-1.759 3.010-1.414 4.877-4.424 4.877-8.594 0-4.242-1.795-7.669-4.786-9.246zM562.765 580.369h23.733v-97.305h-23.733v97.305zM837.929 580.369v-67.771l-40.902 67.771h-35.408v-92.029l-39.379 92.029h-34.828l-32.852-76.51h-10.425c-6.074 0-12.637 1.16-16.208 5.022-4.369 4.895-6.4 12.419-6.4 22.826 0 10.225 2.701 17.949 6.672 22.046 4.605 4.496 9.373 5.765 17.913 5.765h22.028v20.85h-22.5c-16.027 0-27.83-3.572-35.318-11.331-9.972-10.425-12.528-23.624-12.528-38.056 0-17.677 4.279-28.882 12.474-37.149 8.086-8.249 22.391-10.751 33.722-10.769h27.232l8.739 21.702h48.299l9.065-21.702h47.338v73.029l44.129-73.029h32.925v97.305h-23.787zM688.281 525.072l15.973 38.781 16.118-38.781h-32.091zM646.164 543.474c-5.475 0.018-6.037-0.562-6.708-1.197-0.218-0.308-1.849-3.807-1.849-10.552 0-6.672 1.070-9.881 1.849-11.331 0.816-0.218 2.321-0.471 4.569-0.471l10.080 23.551h-7.941zM739.39 392.811v20.125h-77.598v-97.324h77.598v20.179l-54.463 0.127v19.327h53.122v19.871h-53.122v17.695zM505.129 412.9h-74.298l-29.589-31.873-28.646 31.873h-93.516v-97.305h92.12l29.77 32.218 28.646-32.218h45.199v32.635h29.008c20.324 0 40.485 5.584 40.485 32.616 0 26.942-20.723 32.091-39.18 32.054zM359.433 335.846h-57.147v19.363h51.037v19.871h-51.037v17.695h58.289l25.437-28.338-26.579-28.592zM451.644 324.442l-35.717 39.669 35.717 38.364v-78.033zM504.839 368.027h-30.024v24.784h30.314c8.412 0 14.214-3.427 14.214-11.948 0-8.431-5.548-12.873-14.504-12.836zM632.403 360.848c6.092 2.429 16.48 10.334 16.517 25.908 0 11.096-4.623 17.188-11.93 21.611-7.687 4.079-16.245 4.569-28.011 4.569h-53.684v-97.305h23.352v35.535h24.839c8.485 0 13.652-0.834 17.061-4.315 4.315-4.533 3.753-13.199 3.753-19.055v-12.165h23.334v19.291c-0.073 8.576-0.544 12.999-3.862 17.75-1.958 2.81-6.219 6.291-11.368 8.177zM618.389 372.941c-3.118-1.849-6.98-2.012-11.513-2.012h-28.265v21.865h28.646c4.097 0 8.267-0.091 11.096-1.759 3.010-1.577 4.805-4.605 4.805-8.757s-1.795-7.542-4.768-9.337zM828.265 366.994c-5.348 5.294-14.015 7.47-26.633 7.76l-12.492 0.363c-3.971 0-6.581 0.254-9.065 1.106-2.919 1.106-5.076 3.572-5.076 7.252 0 3.082 0.943 5.421 3.517 7.016 2.321 1.577 5.058 1.759 9.319 1.759h42.642v20.705h-46.595c-24.403 0-33.251-14.831-33.251-28.972 0-30.767 27.25-29.389 48.97-30.096 4.079 0 6.509-0.671 8.286-2.158 1.632-1.378 2.828-3.59 2.828-6.436 0-2.647-1.124-4.859-2.72-6.346-1.958-1.849-5.095-2.411-9.482-2.411h-45.108v-20.868h45.29c23.442 0 36.551 9.772 36.551 30.713 0 9.99-2.448 15.937-6.98 20.614zM305.931 580.406l-27.939-66.012-30.441 66.012h-37.965v-92.138l-39.578 92.138h-34.52l-41.645-97.305h25.256l9.029 21.702h48.408l8.938-21.702h47.32v76.274l33.777-76.256 20.469-0.018 33.722 76.202 0.091-76.202h23.841v97.305h-38.763zM136.412 525.072l15.81 38.781 15.9-38.781h-31.71zM439.66 560.136v20.27h-77.67v-97.324h77.67v20.125h-54.427v19.454h53.14v19.925h-53.14v17.55zM923.268 366.994c-5.312 5.294-13.997 7.47-26.615 7.76l-12.51 0.363c-3.934 0-6.563 0.254-9.065 1.106-2.883 1.106-5.058 3.572-5.058 7.252 0 3.082 0.943 5.421 3.499 7.016 2.339 1.577 5.095 1.759 9.337 1.759h42.661v20.705h-46.631c-24.367 0-33.251-14.831-33.251-28.972 0-30.767 27.268-29.389 49.006-30.096 4.061 0 6.473-0.671 8.286-2.158 1.595-1.378 2.81-3.59 2.81-6.436 0-2.647-1.142-4.859-2.701-6.346-1.976-1.849-5.113-2.411-9.5-2.411h-45.090v-20.868h45.29c23.442 0 36.514 9.772 36.514 30.713 0 9.99-2.411 15.937-6.98 20.614z" />
<glyph unicode="&#xe910;" glyph-name="minus" d="M972.797 395.2h-921.6c-28.256 0-51.197 22.941-51.197 51.197 0 28.266 22.941 51.206 51.197 51.206h921.6c28.266 0 51.206-22.941 51.206-51.206 0-28.256-22.941-51.197-51.206-51.197z" />
<glyph unicode="&#xe911;" glyph-name="maps-and-flags" d="M512 960c-204.49 0-370.854-166.364-370.854-370.852 0-253.776 331.878-626.334 346.008-642.070 13.272-14.782 36.444-14.756 49.692 0 14.13 15.736 346.008 388.294 346.008 642.070-0.004 204.488-166.366 370.852-370.854 370.852zM512 402.562c-102.884 0-186.584 83.702-186.584 186.586s83.702 186.584 186.584 186.584 186.582-83.702 186.582-186.586-83.7-186.584-186.582-186.584z" />
<glyph unicode="&#xe912;" glyph-name="heart" d="M941.29 814.55c-53.62 53.62-124.608 82.927-200.371 82.927s-146.968-29.524-200.588-83.144l-28.004-28.004-28.438 28.438c-53.62 53.62-125.042 83.361-200.805 83.361-75.546 0-146.751-29.524-200.154-82.927-53.62-53.62-83.144-124.825-82.927-200.588 0-75.763 29.741-146.751 83.361-200.371l407.689-407.689c5.644-5.644 13.242-8.683 20.623-8.683s14.979 2.822 20.623 8.466l408.557 407.038c53.62 53.62 83.144 124.825 83.144 200.588 0.217 75.763-29.090 146.968-82.71 200.588zM899.609 454.837l-387.934-386.414-387.066 387.066c-42.549 42.549-65.994 98.992-65.994 159.125s23.228 116.576 65.777 158.907c42.332 42.332 98.774 65.777 158.69 65.777 60.133 0 116.793-23.445 159.342-65.994l49.062-49.062c11.506-11.506 29.958-11.506 41.464 0l48.627 48.627c42.549 42.549 99.209 65.994 159.125 65.994s116.358-23.445 158.907-65.777c42.549-42.549 65.777-98.992 65.777-159.125 0.217-60.133-23.228-116.576-65.777-159.125z" />
<glyph unicode="&#xe913;" glyph-name="heart1" d="M489.216-11.776c6.016-6.144 14.208-9.557 22.784-9.557s16.768 3.413 22.784 9.557l409.344 414.763c170.709 172.928 49.408 471.68-193.365 471.68-145.792 0-212.693-107.136-238.763-127.147-26.197 20.096-92.672 127.147-238.763 127.147-242.005 0-364.8-297.984-193.323-471.68z" />
<glyph unicode="&#xe914;" glyph-name="google-hangouts" d="M332 658c69.336 0 132.055-35.578 168-84.602l85.195 85.805c-50.953 66.258-149.023 118.797-253.195 118.797-182.398 0-332-147.602-332-330s149.602-330 332-330c151.203 0 278.398 101.398 317.398 240 8.398 28.805 12.602 58.805 12.602 90v30h-300v-119.977h159c-33-70.805-105.602-120.023-189-120.023-115.797 0-212 94.203-212 210s96.203 210 212 210zM932 598h-120v-90h-90v-120h90v-90h120v90h92v120h-92z" />
<glyph unicode="&#xe915;" glyph-name="slider" d="M0 844c0 22.094 17.906 40 40 40h112v36c0 22.094 17.906 40 40 40s40-17.906 40-40v-36h752c22.094 0 40-17.906 40-40s-17.906-40-40-40h-752v-36c0-22.094-17.906-40-40-40s-40 17.906-40 40v36h-112c-22.094 0-40 17.906-40 40zM984 92h-112v36c0 22.094-17.906 40-40 40s-40-17.906-40-40v-36h-752c-22.094 0-40-17.906-40-40s17.906-40 40-40h752v-36c0-22.094 17.906-40 40-40s40 17.906 40 40v36h112c22.094 0 40 17.906 40 40s-17.906 40-40 40zM984 488h-432v36c0 22.094-17.906 40-40 40s-40-17.906-40-40v-36h-432c-22.094 0-40-17.906-40-40s17.906-40 40-40h432v-36c0-22.094 17.906-40 40-40s40 17.906 40 40v36h432c22.094 0 40 17.906 40 40s-17.906 40-40 40z" />
<glyph unicode="&#xe916;" glyph-name="call" d="M941.835 287.861c-62.693 0-124.251 9.805-182.584 29.083-29.083 9.917-62.195 2.221-81.168-17.112l-115.139-86.917c-133.528 71.277-215.779 153.501-286.083 286.027l84.36 112.139c21.917 21.888 29.779 53.861 20.36 83.861-19.36 58.64-29.195 120.168-29.195 182.888 0.003 45.309-36.859 82.171-82.165 82.171h-188.056c-45.304 0-82.165-36.861-82.165-82.165 0-519.336 422.501-941.835 941.835-941.835 45.307 0 82.168 36.861 82.168 82.168v187.528c-0.003 45.304-36.864 82.165-82.168 82.165zM967.112 18.165c0-13.944-11.333-25.277-25.277-25.277-487.973 0-884.944 396.973-884.944 884.944 0 13.944 11.333 25.277 25.277 25.277h188.056c13.944 0 25.277-11.333 25.277-25.277 0-68.805 10.805-136.333 31.944-200.307 2.944-9.445 0.555-19.221-9-29.168l-97.779-129.496c-6.555-8.693-7.584-20.333-2.667-30.027 79.805-156.861 176.779-253.835 334.749-334.779 9.611-5.027 21.389-3.973 30.112 2.611l132.472 100.36c6.693 6.693 16.723 9.083 25.779 6 64.416-21.277 131.944-32.056 200.723-32.056 13.944 0 25.277-11.333 25.277-25.277v-187.528z" />
<glyph unicode="&#xe917;" glyph-name="envelope" d="M927.999 832.001h-831.999c-52.938 0-96.001-43.063-96.001-96.001v-576c0-52.938 43.063-96.001 96.001-96.001h831.999c52.938 0 96.001 43.063 96.001 96.001v576c0 52.938-43.063 96.001-96.001 96.001zM927.999 768.001c4.348 0 8.484-0.902 12.265-2.477l-428.264-371.18-428.267 371.18c3.781 1.573 7.917 2.477 12.265 2.477zM927.999 128.001h-831.999c-17.656 0-32.001 14.343-32.001 32.001v537.905l427.031-370.094c6.032-5.218 13.501-7.813 20.969-7.813s14.937 2.593 20.969 7.813l427.031 370.094v-537.907c-0.002-17.656-14.345-31.999-32.001-31.999z" />
<glyph unicode="&#xe918;" glyph-name="close" d="M52.912-64.003c-13.489 0-26.977 5.131-37.225 15.456-20.574 20.574-20.574 53.929 0 74.502l918.614 918.614c20.574 20.574 53.929 20.574 74.502 0s20.574-53.929 0-74.515l-918.601-918.601c-10.325-10.261-23.814-15.456-37.29-15.456zM971.59-64.003c-13.489 0-26.964 5.131-37.225 15.456l-918.678 918.601c-20.574 20.587-20.574 53.942 0 74.515s53.929 20.574 74.515 0l918.601-918.614c20.574-20.574 20.574-53.929 0-74.502-10.325-10.261-23.801-15.456-37.213-15.456z" />
<glyph unicode="&#xe919;" glyph-name="nine-oclock-on-circular-clock" d="M480 64h64v64h-64v-64zM512 832c-17.664 0-32-14.336-32-32v-320.768h-256c-17.664 0-32-14.336-32-32s14.336-32 32-32h288c17.664 0 32 14.336 32 32v352.768c0 17.664-14.336 32-32 32zM215.457 229.376l44.288-44.383 44.288 44.383-44.288 44.383-44.288-44.383zM310.175 693.665l-45.28 45.247-45.248-45.247 45.248-45.248 45.28 45.248zM706.431 695.264l44.29-44.383 44.288 44.383-44.288 44.383-44.29-44.383zM697.056 231.104l45.248-45.248 45.248 45.248-45.248 45.247-45.248-45.247zM832 480v-64h64v64h-64zM512 960c-282.785 0-512-229.249-512-512 0-282.785 229.215-512 512-512s512 229.249 512 512-229.215 512-512 512zM512 0c-247.425 0-448 200.575-448 448s200.575 448 448 448c247.425 0 448-200.575 448-448s-200.575-448-448-448z" />
<glyph unicode="&#xe91a;" glyph-name="tick" d="M1009.004 809.008c-19.994 19.996-52.41 19.996-72.408 0l-613.408-613.414-235.784 235.784c-19.994 19.996-52.41 19.994-72.408 0-19.996-19.994-19.996-52.41 0-72.406l271.988-271.984c19.988-19.994 52.428-19.98 72.408 0l649.612 649.612c19.996 19.994 19.994 52.412 0 72.408z" />
<glyph unicode="&#xe91b;" glyph-name="cart" d="M760.954 567.78l-206.679 310.018c-9.396 9.394-23.486 18.789-37.578 18.789s-28.183-4.697-37.578-18.789l-206.679-310.018h-225.468c-28.183 0-46.972-18.789-46.972-46.972 0-4.697 0-9.394 0-14.092l117.431-436.844c9.394-37.578 46.972-70.459 89.248-70.459h610.642c42.275 0 79.853 28.183 89.248 70.459l117.431 436.844c0 4.697 0 9.394 0 14.092 0 28.183-18.789 46.972-46.972 46.972h-216.073zM375.78 567.78l140.917 206.679 140.917-206.679h-281.835zM516.697 192c-51.67 0-93.945 42.275-93.945 93.945s42.275 93.945 93.945 93.945 93.945-42.275 93.945-93.945-42.275-93.945-93.945-93.945z" />
<glyph unicode="&#xe91c;" glyph-name="menu" d="M31.999 640h959.999c17.665 0 31.999 14.337 31.999 31.999 0 17.665-14.337 31.999-31.999 31.999h-959.999c-17.665 0-31.999-14.337-31.999-31.999s14.337-31.999 31.999-31.999zM991.998 479.999h-959.999c-17.665 0-31.999-14.337-31.999-31.999s14.337-31.999 31.999-31.999h959.999c17.665 0 31.999 14.337 31.999 31.999s-14.334 31.999-31.999 31.999zM991.998 256h-639.999c-17.665 0-31.999-14.337-31.999-31.999 0-17.665 14.337-31.999 31.999-31.999h639.999c17.665 0 31.999 14.337 31.999 31.999 0.003 17.665-14.334 31.999-31.999 31.999z" />
<glyph unicode="&#xe91d;" glyph-name="right-arrow" d="M689.55 797.181c-13.95 14.438-37.168 14.438-51.606 0-13.95-13.95-13.95-37.168 0-51.086l261.674-261.674h-863.49c-20.129-0.033-36.128-16.032-36.128-36.16s15.999-36.648 36.128-36.648h863.49l-261.674-261.187c-13.95-14.438-13.95-37.689 0-51.606 14.438-14.438 37.689-14.438 51.606 0l323.622 323.622c14.438 13.95 14.438 37.168 0 51.086l-323.622 323.654z" />
<glyph unicode="&#xe91e;" glyph-name="shopping-cart" d="M949.046 866.908h-762.865v-6.679l-9.545 32.725c-11.5 39.478-48.249 67.045-89.363 67.045h-63.999c-12.864 0-23.273-10.409-23.273-23.273s10.409-23.273 23.273-23.273h63.999c20.568 0 38.932-13.774 44.681-33.524l144.864-496.659-74.228-92.773c-10.591-13.25-16.409-29.865-16.409-46.817 0-41.341 33.613-74.954 74.954-74.954h646.502c12.864 0 23.273 10.409 23.273 23.273s-10.409 23.273-23.273 23.273h-646.502c-15.659 0-28.409 12.751-28.409 28.409 0 6.432 2.204 12.751 6.227 17.749l74.791 93.478h456.483c35.887 0 68.954 20.978 84.251 53.455l162.41 345.114c4.658 9.932 7.113 20.954 7.113 31.887v6.591c0 41.339-33.613 74.952-74.954 74.952zM977.455 785.363c0-4.159-0.932-8.341-2.705-12.092l-162.386-345.090c-7.658-16.228-24.181-26.727-42.137-26.727h-450.225l-122.191 418.909h751.235c15.659 0 28.409-12.751 28.409-28.409v-6.591zM279.273 122.181c-51.34 0-93.092-41.749-93.092-93.092s41.749-93.092 93.092-93.092 93.092 41.749 93.092 93.092-41.751 93.092-93.092 93.092zM279.273-17.455c-25.658 0-46.545 20.887-46.545 46.545s20.887 46.545 46.545 46.545c25.658 0 46.545-20.887 46.545-46.545s-20.887-46.545-46.545-46.545zM837.819 122.181c-51.34 0-93.092-41.749-93.092-93.092s41.749-93.092 93.092-93.092 93.092 41.749 93.092 93.092-41.751 93.092-93.092 93.092zM837.819-17.455c-25.658 0-46.545 20.887-46.545 46.545s20.887 46.545 46.545 46.545c25.658 0 46.545-20.887 46.545-46.545s-20.887-46.545-46.545-46.545z" />
<glyph unicode="&#xe91f;" glyph-name="logout" d="M601.037-65.394h-489.737c-61.393 0-111.3 49.956-111.3 111.309v801.383c0 61.344 49.907 111.3 111.3 111.3h489.737c61.393 0 111.3-49.956 111.3-111.3v-267.128c0-12.293-9.97-22.263-22.255-22.263-12.293 0-22.263 9.97-22.263 22.263v267.128c0 36.815-29.959 66.782-66.782 66.782h-489.737c-36.815 0-66.782-29.967-66.782-66.782v-801.383c0-36.823 29.967-66.782 66.782-66.782h489.737c36.823 0 66.782 29.959 66.782 66.782v267.128c0 12.285 9.97 22.255 22.263 22.255 12.285 0 22.255-9.97 22.255-22.255v-267.128c0-61.353-49.907-111.309-111.3-111.309zM1001.728 424.343h-712.337c-12.293 0-22.263 9.97-22.263 22.263 0 12.285 9.97 22.255 22.263 22.255h712.337c12.285 0 22.263-9.97 22.263-22.255 0-12.293-9.978-22.263-22.263-22.263zM868.164 290.779c-5.698 0-11.397 2.185-15.758 6.497-8.682 8.682-8.682 22.801 0 31.483l117.847 117.847-117.806 117.798c-8.682 8.682-8.682 22.801 0 31.483 8.682 8.674 22.793 8.674 31.475 0l133.564-133.564c8.682-8.682 8.682-22.801 0-31.483l-133.564-133.564c-4.361-4.312-10.060-6.497-15.758-6.497z" />
<glyph unicode="&#xe920;" glyph-name="layout" d="M944 928h-864c-26.51 0-48-21.49-48-48v0-864c0-26.51 21.49-48 48-48v0h864c26.51 0 48 21.49 48 48v0 864c0 26.51-21.49 48-48 48v0zM960 16c0-8.837-7.163-16-16-16v0h-864c-8.837 0-16 7.163-16 16v0 752h896zM64 800v80c0 8.837 7.163 16 16 16v0h864c8.837 0 16-7.163 16-16v0-80zM100.64 859.36c-2.843-2.94-4.606-6.941-4.64-11.353v-0.007c0.027-2.202 0.496-4.288 1.32-6.183l-0.040 0.103c0.777-2.059 1.92-3.818 3.362-5.282l-0.002 0.002c2.907-2.907 6.924-4.705 11.36-4.705 8.873 0 16.065 7.193 16.065 16.065 0 4.436-1.798 8.453-4.705 11.36v0c-2.976 2.752-6.971 4.44-11.36 4.44s-8.384-1.688-11.371-4.45l0.011 0.010zM164.64 859.36c-2.818-2.956-4.573-6.947-4.64-11.347v-0.013c0.030-1.153 0.145-2.256 0.34-3.332l-0.020 0.132c0.191-1.081 0.525-2.047 0.987-2.937l-0.027 0.057c0.382-1.099 0.869-2.051 1.467-2.921l-0.027 0.041c0.635-0.896 1.265-1.679 1.939-2.421l-0.019 0.021c2.924-2.87 6.935-4.641 11.36-4.641s8.436 1.771 11.363 4.643l-0.003-0.002 1.92 2.4c0.571 0.829 1.058 1.781 1.414 2.795l0.026 0.085c0.435 0.833 0.769 1.799 0.951 2.818l0.009 0.062c0.175 0.944 0.29 2.047 0.319 3.172l0.001 0.028c0 0.028 0 0.060 0 0.093 0 8.837-7.163 16-16 16-4.441 0-8.46-1.81-11.359-4.732l-0.001-0.001zM228.64 859.36c-2.87-2.924-4.641-6.935-4.641-11.36s1.771-8.436 4.643-11.363l-0.002 0.003c2.907-2.907 6.924-4.705 11.36-4.705 8.873 0 16.065 7.193 16.065 16.065 0 4.436-1.798 8.453-4.705 11.36v0c-2.976 2.752-6.971 4.44-11.36 4.44s-8.384-1.688-11.371-4.45l0.011 0.010zM928 736h-832v-224h832zM896 544h-768v160h768zM384 480h-288v-448h288zM352 64h-224v384h224zM416 272h512v208h-512zM448 448h448v-144h-448zM416 32h512v208h-512zM448 208h448v-144h-448z" />
<glyph unicode="&#xe921;" glyph-name="user" d="M505.282 449.899c132.33 0 239.593 107.269 239.593 239.593 0 132.318-107.263 239.593-239.593 239.593-132.318 0-239.593-107.275-239.593-239.593 0.102-132.279 107.313-239.491 239.593-239.593zM505.282 888.477c109.9 0 198.985-89.085 198.985-198.985s-89.085-198.985-198.985-198.985c-109.888 0-198.985 89.085-198.985 198.985 0.184 109.818 89.167 198.807 198.985 198.985zM505.282 390.001c-104.154 0-201.012-40.405-272.885-113.911-72.896-74.517-112.9-176.237-112.9-286.703 0.032-11.199 9.108-20.269 20.307-20.301h730.963c11.205 0.032 20.269 9.102 20.301 20.301 0 110.256-39.998 212.186-112.888 286.5-71.879 73.506-168.731 114.114-272.898 114.114zM160.518 9.694c4.468 91.773 39.998 175.633 100.71 237.769 64.163 65.587 150.864 101.72 243.858 101.72s179.695-36.133 243.851-101.72c60.915-62.135 96.248-145.996 100.716-237.769z" />
<glyph unicode="&#xe922;" glyph-name="pin" d="M512 960c-188.208 0-341.334-153.126-341.334-341.334 0-56.5 14.126-112.52 40.98-162.208l281.688-509.458c3.75-6.792 10.896-11 18.666-11s14.916 4.208 18.666 11l281.792 509.626c26.75 49.52 40.876 105.542 40.876 162.042 0 188.206-153.126 341.332-341.334 341.332zM775.020 477.104l-263.020-475.688-262.916 475.5c-23.396 43.292-35.75 92.312-35.75 141.75 0 164.688 133.98 298.666 298.666 298.666s298.666-133.98 298.666-298.666c0-49.436-12.354-98.458-35.646-141.562zM512 789.334c-94.104 0-170.666-76.562-170.666-170.666 0-94.106 76.562-170.668 170.666-170.668s170.666 76.562 170.666 170.666c0 94.104-76.562 170.668-170.666 170.668zM512 490.666c-70.584 0-128 57.416-128 128s57.416 128 128 128 128-57.416 128-128c0-70.582-57.416-128-128-128z" />
<glyph unicode="&#xe923;" glyph-name="eye" d="M1014.836 477.236c-7.902 11.348-196.83 277.964-502.836 277.964s-494.934-266.616-502.836-277.964c-12.22-17.578-12.22-40.892 0-58.47 7.902-11.35 196.83-277.966 502.836-277.966s494.934 266.616 502.836 277.964c12.22 17.58 12.22 40.892 0 58.472zM512 192c-282.76 0-460.8 256-460.8 256s178.040 256 460.8 256 460.8-256 460.8-256-178.040-256-460.8-256zM512 652.8c-113.1 0-204.8-91.682-204.8-204.8s91.682-204.8 204.8-204.8c113.118 0 204.8 91.682 204.8 204.8s-91.7 204.8-204.8 204.8zM512 294.4c-84.702 0-153.6 68.898-153.6 153.6s68.898 153.6 153.6 153.6c84.702 0 153.6-68.898 153.6-153.6s-68.898-153.6-153.6-153.6z" />
<glyph unicode="&#xe924;" glyph-name="shopping-bag" d="M921.6 74.837l-58.634 660.26c-1.256 14.658-13.611 25.757-28.061 25.757h-120.618c-1.675 110.148-91.72 199.146-202.287 199.146s-200.612-88.998-202.287-199.146h-120.618c-14.658 0-26.804-11.099-28.061-25.757l-58.634-660.26c0-0.838-0.209-1.675-0.209-2.513 0-75.177 68.895-136.324 153.705-136.324h512.209c84.81 0 153.705 61.147 153.705 136.324 0 0.838 0 1.675-0.209 2.513zM512 903.46c79.365 0 144.072-63.66 145.747-142.606h-291.494c1.675 78.946 66.382 142.606 145.747 142.606zM768.105-7.46h-512.209c-53.189 0-96.327 35.18-97.165 78.528l56.121 633.037h94.652v-85.857c0-15.706 12.564-28.27 28.27-28.27s28.27 12.564 28.27 28.27v85.857h291.704v-85.857c0-15.706 12.564-28.27 28.27-28.27s28.27 12.564 28.27 28.27v85.857h94.652l56.33-633.037c-0.838-43.347-44.185-78.528-97.165-78.528z" />
<glyph unicode="&#xe925;" glyph-name="random" d="M406.382 282.313l31.341 50.563c7.522 12.118 3.761 27.789-8.357 35.31-11.909 7.522-27.789 3.761-35.31-8.357l-31.341-50.563c-56.831-91.723-137.898-144.375-222.727-144.375h-114.497c-14.208 0-25.49-11.492-25.49-25.699s11.492-25.699 25.49-25.699h114.706c103.006 0.418 199.953 61.845 266.186 168.821zM1016.269 774.568l-124.109 124.317c-10.029 10.029-26.117 10.029-36.146 0s-10.029-26.117 0-36.146l80.65-80.65c-0.209 0-0.209 0-0.418 0h-118.467c-102.797 0-199.953-61.427-266.186-168.403l-19.222-31.132c-7.522-12.118-3.761-27.789 8.357-35.31 4.179-2.507 8.775-3.761 13.372-3.761 8.566 0 16.924 4.388 21.729 12.118l19.222 31.132c56.831 91.723 137.898 144.166 222.727 144.166h118.258c0.209 0 0.209 0 0.418 0l-80.65-80.65c-10.029-10.029-10.029-26.117 0-36.146 5.014-5.014 11.492-7.522 18.178-7.522s13.163 2.507 18.178 7.522l124.317 124.317c9.82 10.029 9.82 26.326-0.209 36.146zM961.737 756.182c0 0.209 0 0.209 0 0.418s0 0.209 0 0.418l0.418-0.418-0.418-0.418zM855.806-2.886c5.014-5.014 11.492-7.522 18.178-7.522s13.163 2.507 18.178 7.522l124.317 124.317c10.029 10.029 10.029 26.117 0 36.146l-124.317 124.109c-10.029 10.029-26.117 10.029-36.146 0s-10.029-26.117 0-36.146l80.65-80.65c-0.209 0-0.209 0-0.418 0h-114.706c-84.619 0-165.896 52.652-222.727 144.375l-188.461 304.421c-66.233 107.185-163.389 168.403-266.186 168.403h-118.676c-14.208 0-25.49-11.492-25.49-25.699s11.492-25.699 25.49-25.699h118.467c84.619 0 165.896-52.652 222.727-144.166l188.461-304.421c66.233-107.185 163.389-168.612 266.186-168.612h114.706c0.209 0 0.209 0 0.418 0l-80.65-80.65c-9.82-9.611-9.82-25.699 0-35.728zM961.737 139.818l0.418-0.418-0.418-0.418c0 0.209 0 0.209 0 0.418s0 0.209 0 0.418z" />
<glyph unicode="&#xe926;" glyph-name="settings" d="M544.132-64h-64.266c-51.978 0-94.268 42.288-94.268 94.266v21.742c-22.098 7.060-43.568 15.972-64.194 26.646l-15.408-15.408c-37.318-37.364-97.096-36.268-133.33 0.014l-45.422 45.42c-36.298 36.258-37.342 96.016 0.012 133.33l15.396 15.396c-10.674 20.626-19.584 42.092-26.646 64.194h-21.74c-51.976 0-94.266 42.288-94.266 94.266v64.268c0 51.978 42.29 94.266 94.268 94.266h21.74c7.062 22.1 15.972 43.568 26.646 64.194l-15.408 15.406c-37.332 37.292-36.302 97.056 0.012 133.33l45.426 45.424c36.318 36.368 96.082 37.276 133.328-0.012l15.394-15.394c20.626 10.672 42.096 19.584 64.194 26.646v21.74c0 51.978 42.288 94.266 94.268 94.266h64.266c51.978 0 94.266-42.288 94.266-94.266v-21.742c22.098-7.060 43.568-15.972 64.194-26.646l15.408 15.408c37.318 37.364 97.096 36.268 133.33-0.014l45.422-45.42c36.298-36.258 37.342-96.016-0.012-133.33l-15.396-15.396c10.674-20.626 19.584-42.092 26.646-64.194h21.74c51.978 0 94.268-42.288 94.268-94.266v-64.268c0-51.978-42.29-94.266-94.268-94.266h-21.74c-7.062-22.1-15.972-43.568-26.646-64.194l15.408-15.408c37.332-37.292 36.302-97.056-0.012-133.33l-45.426-45.424c-36.318-36.368-96.082-37.276-133.328 0.012l-15.394 15.394c-20.626-10.672-42.096-19.584-64.194-26.646v-21.742c0-51.974-42.288-94.262-94.268-94.262zM331.434 141.66c28.654-16.946 59.494-29.748 91.662-38.050 13.248-3.418 22.504-15.366 22.504-29.048v-44.296c0-18.894 15.374-34.266 34.268-34.266h64.266c18.894 0 34.268 15.372 34.268 34.266v44.296c0 13.682 9.256 25.63 22.504 29.048 32.168 8.302 63.008 21.104 91.662 38.050 11.79 6.972 26.8 5.076 36.486-4.61l31.376-31.378c13.528-13.544 35.252-13.23 48.448-0.014l45.454 45.452c13.164 13.148 13.604 34.876 0.012 48.45l-31.39 31.39c-9.684 9.684-11.58 24.696-4.61 36.484 16.946 28.652 29.746 59.492 38.048 91.662 3.42 13.248 15.368 22.502 29.048 22.502h44.294c18.894 0 34.268 15.372 34.268 34.266v64.268c0 18.894-15.374 34.266-34.268 34.266h-44.294c-13.682 0-25.628 9.256-29.048 22.502-8.302 32.17-21.104 63.010-38.048 91.662-6.97 11.788-5.074 26.8 4.61 36.484l31.378 31.378c13.564 13.548 13.21 35.268 0.012 48.45l-45.45 45.45c-13.174 13.192-34.902 13.578-48.45 0.012l-31.388-31.39c-9.684-9.686-24.7-11.582-36.486-4.61-28.654 16.946-59.494 29.748-91.662 38.050-13.248 3.418-22.504 15.366-22.504 29.048v44.3c0 18.894-15.374 34.266-34.268 34.266h-64.266c-18.894 0-34.268-15.372-34.268-34.266v-44.296c0-13.682-9.256-25.63-22.504-29.048-32.168-8.302-63.008-21.104-91.662-38.050-11.792-6.97-26.802-5.074-36.486 4.61l-31.376 31.378c-13.528 13.544-35.254 13.23-48.448 0.014l-45.454-45.452c-13.164-13.148-13.604-34.874-0.012-48.45l31.39-31.39c9.684-9.684 11.58-24.696 4.61-36.484-16.946-28.652-29.746-59.492-38.048-91.662-3.42-13.248-15.368-22.502-29.048-22.502h-44.296c-18.894-0.002-34.268-15.374-34.268-34.268v-64.268c0-18.894 15.374-34.266 34.268-34.266h44.294c13.682 0 25.628-9.256 29.048-22.502 8.302-32.17 21.104-63.010 38.048-91.662 6.97-11.788 5.074-26.8-4.61-36.484l-31.378-31.378c-13.564-13.548-13.21-35.268-0.012-48.45l45.45-45.45c13.174-13.192 34.902-13.578 48.45-0.012l31.388 31.39c7.136 7.134 21.982 13.188 36.488 4.608zM512 225.2c-122.854 0-222.8 99.948-222.8 222.8s99.946 222.8 222.8 222.8 222.8-99.948 222.8-222.8-99.946-222.8-222.8-222.8zM512 610.8c-89.77 0-162.8-73.032-162.8-162.8s73.032-162.8 162.8-162.8 162.8 73.032 162.8 162.8-73.030 162.8-162.8 162.8z" />
<glyph unicode="&#xe927;" glyph-name="home" d="M998.399 516.609c-0.031 0.023-0.055 0.055-0.078 0.078l-417.712 417.696c-17.805 17.813-41.477 27.617-66.656 27.617s-48.852-9.805-66.664-27.617l-417.493-417.485c-0.141-0.141-0.289-0.289-0.422-0.43-36.563-36.774-36.5-96.438 0.18-133.117 16.758-16.766 38.883-26.469 62.547-27.492 0.969-0.094 1.938-0.141 2.914-0.141h16.641v-307.391c0-60.836 49.5-110.328 110.336-110.328h163.422c16.57 0 30 13.438 30 30v241c0 27.758 22.586 50.336 50.344 50.336h96.391c27.758 0 50.336-22.578 50.336-50.336v-241c0-16.563 13.43-30 30-30h163.422c60.844 0 110.336 49.492 110.336 110.328v307.391h15.438c25.172 0 48.844 9.805 66.664 27.625 36.719 36.734 36.734 96.508 0.055 133.266zM955.915 425.765c-6.477-6.477-15.086-10.047-24.234-10.047h-45.438c-16.57 0-30-13.43-30-30v-337.391c0-27.75-22.578-50.328-50.336-50.328h-133.422v211c0 60.836-49.492 110.336-110.336 110.336h-96.391c-60.844 0-110.344-49.5-110.344-110.336v-211h-133.422c-27.75 0-50.336 22.578-50.336 50.328v337.391c0 16.57-13.43 30-30 30h-44.656c-0.469 0.031-0.93 0.055-1.406 0.063-8.938 0.156-17.32 3.703-23.602 9.992-13.359 13.359-13.359 35.102 0 48.469 0.008 0 0.008 0.008 0.016 0.016l417.72 417.704c6.469 6.477 15.070 10.039 24.227 10.039 9.148 0 17.75-3.563 24.227-10.039l417.602-417.595c0.063-0.063 0.133-0.125 0.195-0.188 13.289-13.383 13.266-35.078-0.063-48.414z" />
<glyph unicode="&#xe928;" glyph-name="twitter" d="M1024 765.504c-38.080-16.704-78.656-27.776-120.96-33.152 43.52 25.984 76.736 66.816 92.352 116.032-40.576-24.192-85.376-41.28-133.12-50.816-38.528 41.024-93.44 66.432-153.344 66.432-116.224 0-209.792-94.336-209.792-209.984 0-16.64 1.408-32.64 4.864-47.872-174.528 8.512-328.96 92.16-432.704 219.584-18.112-31.424-28.736-67.392-28.736-106.112 0-72.704 37.44-137.152 93.248-174.464-33.728 0.64-66.816 10.432-94.848 25.856 0-0.64 0-1.472 0-2.304 0-102.016 72.768-186.752 168.192-206.272-17.088-4.672-35.712-6.912-55.040-6.912-13.44 0-27.008 0.768-39.744 3.584 27.2-83.136 104.384-144.256 196.16-146.24-71.424-55.872-162.112-89.536-260.288-89.536-17.216 0-33.728 0.768-50.24 2.88 92.992-59.968 203.2-94.208 322.048-94.208 386.304 0 597.504 320 597.504 597.376 0 9.28-0.32 18.24-0.768 27.136 41.664 29.568 76.672 66.496 105.216 108.992z" />
<glyph unicode="&#xe929;" glyph-name="facebook" d="M682.539 789.973h93.483v162.816c-16.128 2.219-71.595 7.211-136.192 7.211-134.784 0-227.115-84.779-227.115-240.597v-143.403h-148.736v-182.016h148.736v-457.984h182.357v457.941h142.72l22.656 182.016h-165.419v125.397c0.043 52.608 14.208 88.619 87.509 88.619z" />
<glyph unicode="&#xe92a;" glyph-name="left-arrow" d="M334.018 797.137c14.436 14.436 37.164 14.436 51.6 0 13.949-13.949 13.949-37.164 0-51.080l-261.641-261.641h863.38c20.126 0 36.643-15.997 36.643-36.123s-16.517-36.643-36.643-36.643h-863.38l261.641-261.153c13.949-14.436 13.949-37.684 0-51.6-14.436-14.436-37.164-14.436-51.6 0l-323.581 323.581c-13.949 13.949-13.949 37.164 0 51.080l323.581 323.581z" />
<glyph unicode="&#xe92b;" glyph-name="information" d="M512 960c-282.98 0-512-228.994-512-512 0-282.98 228.994-512 512-512 282.98 0 512 228.994 512 512 0 282.98-228.994 512-512 512zM512 4.266c-244.674 0-443.734 199.058-443.734 443.734s199.060 443.734 443.734 443.734 443.734-199.060 443.734-443.734-199.060-443.734-443.734-443.734zM511.994 540.446c-18.85 0-34.134-15.282-34.134-34.134v-287.938c0-18.85 15.282-34.134 34.134-34.134s34.134 15.282 34.134 34.134v287.94c-0.002 18.852-15.284 34.132-34.134 34.132zM512 711.756c-37.642 0-68.266-30.624-68.266-68.266s30.624-68.266 68.266-68.266 68.266 30.624 68.266 68.266-30.624 68.266-68.266 68.266z" />
<glyph unicode="&#xe92c;" glyph-name="information2" d="M562 203c0-27.614-22.386-50-50-50s-50 22.386-50 50c0 27.614 22.386 50 50 50s50-22.386 50-50zM512 960c-282.968 0-512-228.994-512-512 0-282.968 228.994-512 512-512 282.968 0 512 228.994 512 512 0 282.968-228.994 512-512 512zM512 16c-238.754 0-432 193.214-432 432 0 238.754 193.214 432 432 432 238.754 0 432-193.214 432-432 0-238.754-193.214-432-432-432zM512 703c-88.224 0-160-71.776-160-160 0-22.092 17.908-40 40-40s40 17.908 40 40c0 44.112 35.888 80 80 80s80-35.888 80-80c0-44.112-35.888-80-80-80-22.092 0-40-17.908-40-40v-100c0-22.092 17.908-40 40-40s40 17.908 40 40v65.062c68.932 17.806 120 80.52 120 154.938 0 88.224-71.776 160-160 160z" />
<glyph unicode="&#xe92d;" glyph-name="instagram" d="M746.811 960h-469.624c-152.843 0-277.187-124.344-277.187-277.187v-469.632c0-152.836 124.344-277.179 277.187-277.179h469.632c152.836 0 277.179 124.344 277.179 277.179v469.632c0 152.843-124.344 277.187-277.187 277.187zM511.999 168.009c-154.39 0-279.992 125.601-279.992 279.992s125.601 279.992 279.992 279.992 279.992-125.601 279.992-279.992-125.601-279.992-279.992-279.992zM798.686 661.961c-45.625 0-82.734 37.109-82.734 82.734s37.109 82.742 82.734 82.742 82.742-37.117 82.742-82.742-37.117-82.734-82.742-82.734zM511.999 667.961c-121.281 0-219.961-98.672-219.961-219.961 0-121.281 98.68-219.961 219.961-219.961 121.289 0 219.961 98.68 219.961 219.961 0 121.289-98.672 219.961-219.961 219.961zM798.686 767.399c-12.516 0-22.703-10.187-22.703-22.703s10.187-22.703 22.703-22.703c12.523 0 22.711 10.18 22.711 22.703s-10.187 22.703-22.711 22.703z" />
<glyph unicode="&#xe92e;" glyph-name="refresh" d="M366.284 938.659c-115.21-34.245-214.685-107.958-280.981-208.213-9.105-16.427-14.79-34.526-16.713-53.209v179.752h-68.217v-272.868h272.868v68.217h-154.17c76.377 146.933 227.346 239.979 392.929 242.17 196.369-2.283 368.491-131.859 424.991-319.937l65.488 19.442c-80.509 270.853-365.342 425.156-636.195 344.647zM750.759 311.253v-68.217h154.17c-76.377-146.933-227.346-239.979-392.929-242.17-196.369 2.283-368.491 131.859-424.991 319.937l-65.488-19.442c80.854-270.749 365.886-424.689 636.634-343.835 118.587 35.413 220.317 112.613 286.341 217.292 7.073 13.349 10.819 28.21 10.915 43.318v-179.752h68.217v272.868h-272.868z" />
<glyph unicode="&#xe92f;" glyph-name="candlestick-holder" d="M205.67-4.147c-2.808-14.893 1.221-30.26 10.974-41.859s24.201-18.205 39.355-17.994h648.533c28.277 0 51.2 22.923 51.2 51.2s-22.923 51.2-51.2 51.2h-221.867v65.553c56.469 24.721 95.26 77.924 101.53 139.247h0.87c28.277 0 51.2 22.923 51.2 51.2s-22.923 51.2-51.2 51.2h-34.133v153.6c28.277 0 51.2 22.923 51.2 51.2v136.533c0 37.703-30.564 68.267-68.267 68.267h-51.695c11.329 14.734 17.5 32.785 17.562 51.371 0 23.057-18.637 68.71-55.415 135.68-5.996 10.917-17.463 17.701-29.918 17.701s-23.922-6.784-29.918-17.701c-36.779-66.97-55.415-112.623-55.415-135.68 0.062-18.586 6.232-36.637 17.562-51.371h-51.695c-18.973 0.003-37.092-7.89-50.010-21.786s-19.471-32.542-18.086-51.464c2.649-28.811 23.045-52.883 51.029-60.228v-276.122h-34.133c-28.277 0-51.2-22.923-51.2-51.2s22.923-51.2 51.2-51.2h0.87c6.27-61.323 45.061-114.525 101.53-139.247v-65.553h-209.22c-1.604 1.155-3.268 2.226-4.983 3.209l-14.95 8.158c-63.642 34.884-135.765 74.445-145.51 134.383-4.26 30.263 5.546 60.814 26.624 82.944 11.938 9.386 28.306 10.8 41.677 3.601 3.908-1.417 16.725-6.639 17.988-14.729 1.246-7.543-4.403-20.617-19.866-32.819-10.776-8.476-17.689-20.931-19.183-34.56-1.559-13.403 2.32-26.872 10.769-37.393 8.405-10.682 20.72-17.574 34.22-19.153s27.073 2.286 37.716 10.739c41.399 29.375 63.435 79.026 57.446 129.434-8.317 44.757-40.734 81.228-84.207 94.737-47.523 19.781-102.085 11.706-141.841-20.992-52.821-43.81-71.373-122.795-62.447-178.21 13.807-84.224 80.93-137.882 135.305-171.895zM921.6-12.8c0-9.426-7.641-17.067-17.067-17.067h-648.533c-9.426 0-17.067 7.641-17.067 17.067s7.641 17.067 17.067 17.067h648.533c9.426 0 17.067-7.641 17.067-17.067zM563.2 806.571c0 12.578 13.449 50.5 51.2 119.262 37.751-68.762 51.2-106.684 51.2-119.262 0-28.277-22.923-51.2-51.2-51.2s-51.2 22.923-51.2 51.2zM460.8 684.407c-0.71 9.901 2.915 19.622 9.933 26.641 6.395 6.452 15.116 10.062 24.201 10.018h238.933c18.851 0 34.133-15.282 34.133-34.133v-136.533c0-9.426-7.641-17.067-17.067-17.067-9.402 0.056-17.011 7.664-17.067 17.067v51.2c0 28.277-22.923 51.2-51.2 51.2h-17.067c-28.277 0-51.2-22.923-51.2-51.2v-100.318c0.337-8.821-5.517-16.684-14.063-18.893-4.992-0.917-10.131 0.476-13.978 3.789-3.849 3.232-6.078 7.996-6.093 13.022v102.4c0 28.277-22.923 51.2-51.2 51.2h-31.249c-18.584-0.463-34.519 13.175-36.932 31.607zM512 618.667h17.067c9.426 0 17.067-7.641 17.067-17.067v-102.4c0.056-28.254 22.946-51.144 51.2-51.2 2.859 0.014 5.712 0.254 8.533 0.717 25.039 4.938 42.984 27.046 42.667 52.565v100.318c0 9.426 7.641 17.067 17.067 17.067h17.067c9.426 0 17.067-7.641 17.067-17.067v-51.2c0.010-14.449 6.226-28.199 17.067-37.751v-167.049h-204.8zM426.667 294.4c0 9.426 7.641 17.067 17.067 17.067h341.333c9.426 0 17.067-7.641 17.067-17.067s-7.641-17.067-17.067-17.067h-341.333c-9.426 0-17.067 7.641-17.067 17.067zM479.044 243.2h270.711c-8.55-68.249-66.574-119.456-135.356-119.456s-126.805 51.207-135.356 119.456zM580.267 93.013c22.523-4.598 45.743-4.598 68.267 0v-54.613h-68.267zM154.607 319.676c30.543 24.668 72.19 30.506 108.339 15.189 31.751-9.466 55.685-35.684 62.225-68.164 3.828-38.157-13.393-75.377-44.954-97.161-3.524-2.831-8.037-4.128-12.527-3.601-4.56 0.55-8.709 2.905-11.52 6.537-2.783 3.454-4.056 7.884-3.533 12.288 0.496 4.572 2.816 8.75 6.434 11.588 21.732 14.252 34.119 39.091 32.427 65.024-4.557 20.219-20.028 36.197-40.090 41.404-24.813 11.234-53.832 7.587-75.093-9.438-30.327-29.928-44.631-72.484-38.537-114.654 10.462-64.427 68.949-105.66 129.485-140.288h-11.264c-12.353-0.045-24.266-4.596-33.502-12.8-51.337 32.273-107.008 77.824-118.443 147.627-8.28 54.161 10.625 108.928 50.551 146.449z" />
<glyph unicode="&#xe930;" glyph-name="museum" d="M512 684c5.258 0 10.422 2.141 14.141 5.859s5.859 8.883 5.859 14.141-2.141 10.422-5.859 14.141c-3.719 3.719-8.883 5.859-14.141 5.859s-10.422-2.141-14.141-5.859c-3.719-3.719-5.859-8.883-5.859-14.141s2.141-10.422 5.859-14.141c3.719-3.719 8.883-5.859 14.141-5.859zM1004 56h-24v60c0 11.047-8.953 20-20 20h-12v31.664c0 21.656-13.211 40.273-32 48.227v67.445c0 11.047-8.953 20-20 20s-20-8.953-20-20v-63.336h-40v284h40v-64.711c0-11.047 8.953-20 20-20s20 8.953 20 20v68.82c18.789 7.953 32 26.578 32 48.227v31.664h12c11.047 0 20 8.953 20 20v76h2c9.273 0 17.32 6.367 19.461 15.391 2.141 9.016-2.203 18.328-10.484 22.484l-470 236c-5.648 2.836-12.305 2.836-17.953 0l-470-236c-8.281-4.164-12.625-13.469-10.484-22.484 2.141-9.023 10.188-15.391 19.461-15.391h2v-76c0-11.047 8.953-20 20-20h12v-31.664c0-21.648 13.211-40.273 32-48.219v-292.227c-18.789-7.953-32-26.57-32-48.219v-31.672h-12c-11.047 0-20-8.953-20-20v-60h-24c-11.047 0-20-8.953-20-20v-80c0-11.047 8.953-20 20-20h984c11.047 0 20 8.953 20 20v80c0 11.047-8.953 20-20 20zM895.664 180c6.805 0 12.336-5.531 12.336-12.336v-31.664h-104v31.664c0 6.805 5.531 12.336 12.336 12.336zM718.664 136v31.664c0 21.648-13.211 40.273-32 48.227v292.219c18.789 7.953 32 26.578 32 48.227v31.664h45.336v-31.664c0-21.648 13.211-40.273 32-48.219v-292.227c-18.789-7.953-32-26.57-32-48.219v-31.672zM489.336 136v31.664c0 21.656-13.219 40.273-32 48.227v292.219c18.781 7.953 32 26.578 32 48.227v31.664h45.336v-31.664c0-21.648 13.211-40.273 32-48.219v-292.227c-18.789-7.953-32-26.57-32-48.219v-31.672zM260 136v31.664c0 21.656-13.211 40.273-32 48.227v292.219c18.789 7.953 32 26.578 32 48.227v31.664h45.336v-31.664c0-21.648 13.211-40.273 32-48.219v-292.227c-18.789-7.953-32-26.57-32-48.219v-31.672zM148 504h40v-284h-40zM377.336 504h40v-284h-40zM449.336 556.336c0-6.805-5.531-12.336-12.336-12.336h-79.336c-6.797 0-12.336 5.531-12.336 12.336v31.664h104v-31.664zM345.336 167.664c0 6.805 5.531 12.336 12.336 12.336h79.328c6.797 0 12.336-5.531 12.336-12.336v-31.664h-104zM606.664 504h40v-284h-40zM678.664 556.336c0-6.805-5.531-12.336-12.336-12.336h-79.328c-6.797 0-12.336 5.531-12.336 12.336v31.664h104zM574.664 167.664c0 6.805 5.531 12.336 12.336 12.336h79.336c6.797 0 12.336-5.531 12.336-12.336v-31.664h-104v31.664zM908 556.336c0-6.805-5.531-12.336-12.336-12.336h-79.336c-6.797 0-12.328 5.531-12.328 12.336v31.664h104zM412.664 684c11.047 0 20 8.953 20 20s-8.953 20-20 20h-286.266l385.602 193.617 385.602-193.617h-279.602c-11.047 0-20-8.953-20-20s8.953-20 20-20h322v-56h-856v56zM220 588v-31.664c0-6.805-5.531-12.336-12.336-12.336h-79.328c-6.805 0-12.336 5.531-12.336 12.336v31.664zM116 167.664c0 6.805 5.531 12.336 12.336 12.336h79.336c6.797 0 12.328-5.531 12.328-12.336v-31.664h-104zM84 96h856v-40h-856zM984-24h-944v40h944zM896 382c-5.258 0-10.422-2.141-14.141-5.859s-5.859-8.883-5.859-14.141 2.141-10.422 5.859-14.141c3.719-3.719 8.883-5.859 14.141-5.859s10.422 2.141 14.141 5.859c3.719 3.719 5.859 8.883 5.859 14.141s-2.141 10.422-5.859 14.141c-3.719 3.719-8.883 5.859-14.141 5.859z" />
<glyph unicode="&#xe931;" glyph-name="vase" d="M649.134 110.624c4.697 6.991 9.727 13.874 15.198 20.561 33.151 40.456 104.512 137.301 134.104 252.069 0.363 0.843 0.677 1.706 0.902 2.598 6.481 25.827 10.374 51.32 11.756 76.215 0.078 1.432 0.157 2.883 0.226 4.324 0.088 1.932 0.167 3.863 0.216 5.785 0.108 3.432 0.157 6.873 0.167 10.315 0 0.324 0.010 0.637 0.010 0.961-0.118 61.752-16.727 125.338-60.282 185.757h-0.020c-19.159 26.572-44.966 50.545-78.882 73.283-19.041 12.766-43.672 34.181-52.761 63.694-8.177 26.562 4.922 56.517 31.867 72.852 22.14 13.413 35.896 37.877 35.896 63.821 0 9.472-7.668 17.139-17.139 17.139h-342.717c-9.472 0-17.129-7.668-17.129-17.139 0-25.944 13.757-50.408 35.896-63.821 26.935-16.325 40.044-46.28 31.847-72.852-9.089-29.513-33.71-50.928-52.751-63.694-33.896-22.718-59.703-46.692-78.902-73.293-44.064-61.105-60.537-125.456-60.262-187.885 0-0.431 0.010-0.873 0.010-1.314 0.029-3.451 0.108-6.893 0.235-10.335 0.049-1.383 0.088-2.765 0.157-4.157 0.088-1.843 0.216-3.677 0.333-5.51 1.549-25.336 5.667-51.281 12.482-77.539 0.235-0.941 0.569-1.824 0.961-2.687 30.121-113.249 100.375-208.544 133.192-248.588 5.756-7.030 11.060-14.286 15.972-21.679-231.832-11.099-231.861-36.828-231.861-52.369v-64.998c0-20.502 20.042-33.68 125.79-44.623 71.773-7.422 167.069-11.521 268.326-11.521 101.277 0 196.563 4.099 268.346 11.521 105.748 10.942 125.79 24.121 125.79 44.623v64.998c0 15.325-0.049 43.495-256.972 53.487zM740.753 409.758l-8.932 4.236c-23.885 11.305-52.33 11.276-76.137 0l-27.68-13.1c-13.374-6.334-29.033-6.922-42.878-1.677l-50.222 19.012c-22.552 8.521-47.937 7.54-69.665-2.755l-30.798-14.58c-13.394-6.344-29.052-6.942-42.878-1.677l-45.3 17.149c-10.187 3.853-20.914 5.765-31.592 5.765-16.58 0-33.063-4.599-47.29-13.57-10.776-6.805-24.022-9.442-36.779-7.628-5.207 22.356-8.609 45.319-9.54 68.567 21.993-4.334 45.27-0.324 64.625 11.884 14.286 9.040 32.396 10.805 48.427 4.736l45.3-17.149c22.562-8.55 47.937-7.55 69.685 2.755l30.808 14.58c13.364 6.314 28.994 6.932 42.848 1.686l50.222-19.022c22.581-8.55 47.947-7.55 69.685 2.755l27.68 13.109c14.639 6.932 32.141 6.952 46.819 0l8.942-4.236c16.031-7.609 33.759-10.080 51.016-7.491-0.677-23.111-3.814-45.966-8.766-68.234-9.501-0.775-19.061 0.843-27.601 4.883zM274.432 649.149c16.767 23.248 39.72 44.466 70.185 64.88 23.66 15.855 54.379 42.966 66.429 82.069 12.815 41.603-6.442 87.756-46.839 112.249-6.981 4.226-12.354 10.286-15.649 17.384h300.948c-3.295-7.089-8.668-13.149-15.649-17.384-40.397-24.483-59.654-70.636-46.849-112.249 12.060-39.103 42.78-66.214 66.449-82.069 30.474-20.434 53.428-41.662 70.185-64.87h-0.020c32.925-45.662 48.584-93.688 52.575-141.291-11.874-2.687-24.503-1.481-35.436 3.706l-8.942 4.236c-23.875 11.305-52.33 11.266-76.137 0l-27.68-13.109c-13.364-6.334-29.033-6.932-42.868-1.686l-50.222 19.022c-22.542 8.53-47.947 7.53-69.665-2.755l-30.808-14.58c-13.384-6.344-29.052-6.942-42.878-1.686l-45.29 17.149c-26.003 9.854-55.507 6.942-78.892-7.805-13.649-8.619-30.504-10.511-45.751-5.599 3.569 48.633 19.149 97.737 52.8 144.39zM240.272 366.047c15.982 0.275 31.67 4.844 45.417 13.531 14.296 9.040 32.396 10.795 48.437 4.746l45.29-17.149c10.148-3.853 20.875-5.765 31.602-5.765 13.070 0 26.121 2.853 38.083 8.501l30.808 14.59c13.374 6.334 29.003 6.952 42.858 1.677l50.222-19.012c22.483-8.521 47.868-7.54 69.675 2.745l27.68 13.109c14.649 6.932 32.151 6.952 46.829 0l8.932-4.236c10.384-4.922 21.669-7.609 33.141-8.177-30.562-98.884-92.070-181.894-121.416-217.702-13.904-16.973-25.699-34.994-35.073-53.585-23.532-18.071-183.914-18.071-207.436 0-9.403 18.639-21.199 36.671-35.083 53.585-28.896 35.259-88.952 116.269-119.965 213.143zM370.199 76.13c20.169-19.904 79.853-24.317 128.829-24.317 49.741 0 110.484 4.569 129.712 25.258 113.896-3.853 185.287-12.472 220.703-20.022-50.937-10.835-170.432-21.777-337.472-21.777-167.177 0-286.74 10.952-337.579 21.797 32.425 6.962 95.462 14.815 195.808 19.061zM511.971-29.736c-201.014 0-333.197 15.845-359.847 28.288v28.945c19.061-5.609 48.035-10.491 91.511-14.982 71.754-7.422 167.059-11.511 268.336-11.511s196.572 4.089 268.346 11.511c43.486 4.501 72.45 9.374 91.521 14.982v-28.945c-26.66-12.443-158.842-28.288-359.866-28.288z" />
<glyph unicode="&#xe932;" glyph-name="picture-frame" d="M992 720h-249.376l-151.376 151.376c-3.776 40.608-37.664 72.624-79.248 72.624s-75.472-32.016-79.248-72.624l-151.376-151.376h-249.376c-8.832 0-16-7.168-16-16v-736c0-8.832 7.168-16 16-16h960c8.832 0 16 7.168 16 16v736c0 8.832-7.168 16-16 16zM112 240h800v-35.040c-18.8 5.472-40.352 1.312-54.624-12.96l-9.376-9.376c-8.416-8.416-23.584-8.416-32 0l-9.376 9.376c-20.624 20.64-56.624 20.64-77.248 0l-9.376-9.376c-8.416-8.416-23.584-8.416-32 0l-9.376 9.376c-20.624 20.64-56.624 20.64-77.248 0l-9.376-9.376c-8.416-8.416-23.584-8.416-32 0l-9.376 9.376c-20.624 20.64-56.624 20.64-77.248 0l-9.376-9.376c-8.416-8.416-23.584-8.416-32 0l-9.376 9.376c-20.624 20.64-56.624 20.64-77.248 0l-9.376-9.376c-8.416-8.416-23.584-8.416-32 0l-9.376 9.376c-20.624 20.64-56.624 20.64-77.248 0l-9.376-9.376c-8.416-8.416-23.584-8.416-32 0l-9.376 9.376c-14.272 14.272-35.824 18.432-54.624 12.96zM720 272v32h32v-32zM688 304v-32h-64v32zM752 336h-192v64h192zM560 304h32v-32h-32zM112 169.376c8.416 8.416 23.584 8.416 32 0l9.376-9.376c20.624-20.64 56.624-20.64 77.248 0l9.376 9.376c8.416 8.416 23.584 8.416 32 0l9.376-9.376c20.624-20.64 56.624-20.64 77.248 0l9.376 9.376c8.416 8.416 23.584 8.416 32 0l9.376-9.376c20.624-20.64 56.624-20.64 77.248 0l9.376 9.376c8.416 8.416 23.584 8.416 32 0l9.376-9.376c20.624-20.64 56.624-20.64 77.248 0l9.376 9.376c8.416 8.416 23.584 8.416 32 0l9.376-9.376c20.624-20.64 56.624-20.64 77.248 0l9.376 9.376c8.416 8.416 23.584 8.416 32 0l9.376-9.376c10.32-10.32 24.032-16 38.624-16s28.32 5.68 38.624 16l9.376 9.376c8.416 8.416 23.584 8.416 32 0v-28.416c-18.8 5.472-40.352 1.312-54.624-12.96l-9.376-9.376c-8.416-8.416-23.584-8.416-32 0l-9.376 9.376c-20.624 20.64-56.624 20.64-77.248 0l-9.376-9.376c-8.416-8.416-23.584-8.416-32 0l-9.376 9.376c-20.624 20.64-56.624 20.64-77.248 0l-9.376-9.376c-8.416-8.416-23.584-8.416-32 0l-9.376 9.376c-20.624 20.64-56.624 20.64-77.248 0l-9.376-9.376c-8.416-8.416-23.584-8.416-32 0l-9.376 9.376c-20.624 20.64-56.624 20.64-77.248 0l-9.376-9.376c-8.416-8.416-23.584-8.416-32 0l-9.376 9.376c-20.624 20.64-56.624 20.64-77.248 0l-9.376-9.376c-8.416-8.416-23.584-8.416-32 0l-9.376 9.376c-14.272 14.272-35.824 18.432-54.624 12.96zM912 272h-128v144c0 8.832-7.168 16-16 16h-224c-8.832 0-16-7.168-16-16v-144h-96v112h48c5.216 0 10.112 2.544 13.104 6.816 3.008 4.272 3.712 9.744 1.936 14.656l-64 176c-2.304 6.32-8.32 10.528-15.040 10.528s-12.736-4.208-15.040-10.528l-64-176c-1.776-4.912-1.056-10.368 1.936-14.656 2.992-4.272 7.888-6.816 13.104-6.816h48v-112h-160v112h48c5.216 0 10.112 2.544 13.104 6.816 3.008 4.272 3.712 9.744 1.936 14.656l-64 176c-2.304 6.32-8.32 10.528-15.040 10.528s-12.736-4.208-15.040-10.528l-64-176c-1.776-4.912-1.056-10.368 1.936-14.656 2.992-4.272 7.888-6.816 13.104-6.816h48v-112h-96v352h800zM374.848 416l41.152 113.184 41.152-113.184zM182.848 416l41.152 113.184 41.152-113.184zM112 105.376c8.416 8.416 23.584 8.416 32 0l9.376-9.376c20.624-20.64 56.624-20.64 77.248 0l9.376 9.376c8.416 8.416 23.584 8.416 32 0l9.376-9.376c20.624-20.64 56.624-20.64 77.248 0l9.376 9.376c8.416 8.416 23.584 8.416 32 0l9.376-9.376c20.624-20.64 56.624-20.64 77.248 0l9.376 9.376c8.416 8.416 23.584 8.416 32 0l9.376-9.376c20.624-20.64 56.624-20.64 77.248 0l9.376 9.376c8.416 8.416 23.584 8.416 32 0l9.376-9.376c20.624-20.64 56.624-20.64 77.248 0l9.376 9.376c8.416 8.416 23.584 8.416 32 0l9.376-9.376c10.32-10.32 24.032-16 38.624-16s28.32 5.68 38.624 16l9.376 9.376c8.416 8.416 23.584 8.416 32 0v-57.376h-800zM921.376 656h-818.752l-32 32h882.752zM80 633.376v-594.752l-32-32v658.752zM102.624 16h818.752l32-32h-882.752zM944 38.624v594.752l32 32v-658.752zM512 912c26.464 0 48-21.536 48-48s-21.536-48-48-48-48 21.536-48 48 21.536 48 48 48zM438.72 832.096c12.368-28.256 40.512-48.096 73.28-48.096s60.912 19.84 73.28 48.096l112.096-112.096h-370.752zM704 464h128c26.464 0 48 21.536 48 48s-21.536 48-48 48c-2.768 0-5.52-0.24-8.208-0.704-11.056 19.872-32.064 32.704-55.792 32.704s-44.736-12.832-55.792-32.704c-2.688 0.464-5.44 0.704-8.208 0.704-26.464 0-48-21.536-48-48s21.536-48 48-48zM704 528c3.024 0 6.016-0.896 8.64-2.592 4.368-2.848 9.856-3.36 14.688-1.408s8.416 6.144 9.6 11.232c3.376 14.576 16.16 24.768 31.072 24.768s27.696-10.192 31.072-24.768c1.184-5.088 4.752-9.28 9.6-11.232s10.336-1.424 14.688 1.408c2.624 1.696 5.616 2.592 8.64 2.592 8.816 0 16-7.184 16-16s-7.184-16-16-16h-128c-8.816 0-16 7.184-16 16s7.184 16 16 16z" />
<glyph unicode="&#xe933;" glyph-name="candlestick" d="M1023.97 509.883c-0.672 32.93-9.992 63.531-26.953 88.508-13.641 20.063-31.758 35.75-53.164 46.188l24.859 54.149h34.992c11.039 0 20 8.953 20 20 0 11.039-8.961 20-20 20h-252.188c-11.047 0-20-8.961-20-20 0-11.047 8.953-20 20-20h35.008l26.422-57.399c-3.938-2.281-7.734-4.766-11.352-7.477-36.125-27.016-53.695-74.734-42.734-116.055 8.031-30.266 30.523-55.219 58.703-65.117 30.852-10.844 65.961-2.578 87.367 20.539 23.008 24.852 26.305 64.016 7.672 91.11-6.266 9.102-18.711 11.406-27.813 5.141-9.102-6.258-11.406-18.711-5.148-27.813 8.023-11.664 6.203-30.172-4.063-41.258-10.398-11.234-29.227-15.43-44.758-9.977-15.617 5.484-28.688 20.258-33.297 37.633-6.773 25.531 5.016 56.555 28.031 73.774 6.758 5.055 14.453 9.023 22.695 11.883 19.875 6.883 42.438 7.070 62.547 0.953 44.102-13.156 72.133-53.57 73.18-105.594 1.477-73.008-67.125-119.914-134.297-123.094-39.586-1.859-79.25 11.766-111.75 38.391-32.32 26.477-53.992 62.75-61.031 102.125-0.836 4.672-1.563 9.531-2.336 14.672-4.32 28.688-9.695 64.383-39.117 86.797-19.711 15.016-38.328 16.547-66.547 16.617v147.922l33.164 63.5h34.703c11.047 0 20 8.953 20 20s-8.953 20-20 20h-252.18c-11.047 0-20-8.953-20-20s8.953-20 20-20h36.695l33.828-64.594v-146.735c-7.953 0.008-16.063-0.172-24.297-0.977-27.227-2.641-49.649-16.633-63.133-39.383-11.914-20.086-15.227-42.649-18.164-62.555-0.695-4.711-1.344-9.164-2.102-13.539-1.859-10.891 5.453-21.227 16.336-23.094 1.141-0.195 2.281-0.297 3.406-0.297 9.563 0 18.016 6.883 19.688 16.625 0.828 4.852 1.547 9.75 2.25 14.484 2.625 17.828 5.102 34.664 12.992 47.977 7.016 11.836 17.977 18.555 32.594 19.969 6.625 0.648 13.422 0.789 20.43 0.781v-274.141c-25.008 15.078-55.133 20.242-82.469 12.281-22.617-6.586-41.688-22.484-51.031-42.539-8.797-18.898-8.375-41.594 1.141-60.695 8.578-17.211 23.836-29.297 41.859-33.148 3.57-0.766 7.203-1.133 10.828-1.133 14.578 0 29.18 6 39.914 16.797 12.063 12.133 16.953 28.266 13.438 44.25-2.375 10.789-13.055 17.609-23.836 15.227-10.789-2.375-17.609-13.039-15.227-23.828 0.203-0.953 0.844-3.844-2.75-7.461-3.672-3.695-9.563-5.688-14-4.734-7.867 1.68-12.188 7.375-14.422 11.867-4.008 8.055-4.281 18.25-0.68 25.969 4.469 9.609 14.414 17.664 25.953 21.023 24.961 7.273 54.102-3.844 71.289-26.594v-66.649c-10.367-0.75-18.555-9.375-18.555-19.93 0-24.297-7.641-42.188-22.703-53.188-10.273-7.492-21.039-9.664-23.672-10.102h-63.813c-43.508 0-78.906-35.398-78.906-78.906v-29.961c0-11.047 8.953-20 20-20h489.087c11.039 0 20 8.953 20 20v29.961c0 43.508-35.398 78.906-78.906 78.906h-63.992c-6.281 0.875-46.211 8.602-46.211 63.289 0 10.555-8.188 19.18-18.547 19.93v66.649c17.18 22.742 46.328 33.859 71.289 26.594 11.531-3.359 21.477-11.414 25.945-21.023 3.602-7.719 3.328-17.914-0.68-25.969-2.234-4.484-6.547-10.188-14.422-11.875-4.438-0.945-10.328 1.047-14 4.742-3.594 3.617-2.961 6.508-2.75 7.461 2.375 10.789-4.445 21.453-15.227 23.828-10.789 2.383-21.461-4.438-23.836-15.227-3.523-15.992 1.383-32.125 13.445-44.258 10.727-10.797 25.328-16.797 39.906-16.797 3.633 0 7.258 0.375 10.828 1.141 18.023 3.852 33.281 15.93 41.859 33.148 9.516 19.102 9.945 41.797 1.141 60.695-9.336 20.047-28.414 35.953-51.024 42.539-27.344 7.969-57.469 2.805-82.477-12.281v274.047c24.078-0.086 32.789-1.18 42.305-8.43 16.523-12.586 20.055-36.063 23.797-60.922 0.781-5.188 1.586-10.555 2.523-15.766 17.688-99 106.68-173.649 204.899-173.641 3.039 0 6.086 0.070 9.133 0.211 86.297 4.078 174.383 66.484 172.414 163.86zM924.697 698.727l-19.188-41.805c-18.234 3.133-37.109 2.875-55.188-1.117l-19.766 42.922zM495.102 624.5c0 0.016 0 0.031 0 0.039 0 0.016 0 0.031 0 0.039v151.75h33.797v-565.102h-33.797zM556.931 856.001l-20.711-39.672h-49.016l-20.773 39.672zM736.54 49.031v-9.961h-449.079v9.961c0 21.453 17.453 38.906 38.906 38.906h371.266c21.453 0 38.906-17.453 38.906-38.906zM458.977 127.937c7.719 11.398 13.625 25.656 16.188 43.297h73.672c2.555-17.641 8.461-31.898 16.18-43.297zM292.493 379.555c9.25 6.039 11.852 18.43 5.813 27.68-6.039 9.242-18.43 11.852-27.68 5.813-5.586-3.648-11.414-6.992-17.32-9.945-48.016-24-106.274-22.359-152.039 4.281-46.492 27.063-68.914 75.524-58.531 126.461 9.227 45.274 43.43 77.719 85.43 84.078 0.148 0.016 0.297 0.047 0.445 0.063 0.891 0.133 1.797 0.234 2.695 0.336 10.039 1.141 20.195 0.844 29.914-0.859 0.43-0.078 0.867-0.141 1.297-0.227 0.461-0.086 0.906-0.195 1.367-0.289 23.781-5.016 43.813-18.844 54.859-38.383 12.773-22.563 12.555-49.414-0.539-68.391-13.813-20-38.477-27.516-58.649-17.859-9.156 4.383-16.289 13.211-19.070 23.617-1.438 5.406-2.852 15.938 3.883 25.734 6.258 9.102 3.945 21.555-5.156 27.813-9.102 6.25-21.555 3.945-27.813-5.156-11.547-16.805-15.031-38.203-9.555-58.711 5.758-21.547 20.875-40.008 40.445-49.375 38-18.195 83.781-5.070 108.828 31.211 21.75 31.508 22.711 75 2.445 110.813-10.063 17.789-24.852 32.391-42.609 42.836l26.531 57.625h34.703c11.047 0 20 8.961 20 20 0 11.047-8.953 20-20 20h-252.188c-11.047 0-20-8.953-20-20 0-11.039 8.953-20 20-20h35.289l25.063-54.594c-8.195-4.125-16.031-9.055-23.375-14.805-27.32-21.406-46.297-52.477-53.438-87.485-13.711-67.258 16.75-133.602 77.602-169.024 30.359-17.672 65.086-26.57 99.945-26.57 30.914 0 61.93 7 90.102 21.078 7.273 3.633 14.438 7.75 21.305 12.234zM193.446 698.727l-19.766-42.922c-18.063 3.984-36.977 4.297-55.195 1.125l-19.18 41.797zM316.86 445.914c3.359-8.063 11.719-13.078 20.422-12.25 8.281 0.797 15.313 6.891 17.398 14.922 2.055 7.914-1.102 16.586-7.797 21.289-6.516 4.578-15.344 4.875-22.117 0.672-8.195-5.086-11.617-15.727-7.906-24.633z" />
<glyph unicode="&#xe934;" glyph-name="balloon" d="M139.934 806.989c-25.732-6.64-48.16-22.438-63.076-44.433-3.269-5.146-3.543-11.644-0.72-17.046s8.313-8.889 14.403-9.147c6.090-0.258 11.856 2.755 15.122 7.901 10.274 14.828 25.594 25.41 43.1 29.773 9.101 2.439 14.501 11.792 12.061 20.892-2.435 9.099-11.79 14.499-20.89 12.059zM442.47 852.73c5.886 1.579 10.484 6.182 12.057 12.069 1.575 5.888-0.112 12.169-4.422 16.478-4.312 4.308-10.594 5.988-16.482 4.408-18.083-4.858-34.737-13.983-48.566-26.606-9.426-8.669-17.479-18.723-23.883-29.813-4.742-8.139-1.991-18.581 6.148-23.325s18.581-1.991 23.325 6.148c4.662 8.099 10.53 15.442 17.401 21.776 9.796 8.955 21.602 15.426 34.421 18.865v0zM1000.469 711.217c-27.864 42.186-73.47 69.334-123.838 73.714-48.442 4.242-96.556-11.182-133.5-42.8-16.15 45.873-50.111 83.299-94.207 103.811-12.399 5.59-25.412 9.706-38.771 12.265-14.938 32.124-39.767 58.622-70.851 75.618-46.924 23.445-101.992 24.161-149.51 1.941-45.973-21.448-81.292-60.613-97.887-108.551-38.362 33.216-88.551 49.455-139.098 45.007-52.178-4.514-99.437-32.616-128.318-76.303-37.644-58.962-31.654-140.213 16.394-222.84 11.652-20.098 25.045-39.133 40.027-56.887 7.881-9.538 14.71-17.22 21.002-23.617 73.596-82.163 222.119-136.553 297.878-160.162l-21.014-63.038c-3.805-11.382-1.048-23.933 7.179-32.67s20.59-12.245 32.18-9.131l24.721 6.624c19.371-12.287 33.623-31.192 40.103-53.198 2.257-17.286-3.473-34.657-15.57-47.208-23.797-27.716-30.688-66.159-18.001-100.416 12.685-34.257 42.954-58.938 79.062-64.472 3.111-0.020 6.212 0.368 9.221 1.158 8.909 2.413 14.195 11.57 11.83 20.492-2.407 9.033-11.528 14.543-20.642 12.471-22.821 5.412-41.151 22.37-48.32 44.701-7.169 22.334-2.133 46.788 13.275 64.474 18.567 20.252 26.918 47.848 22.699 74.998-4.964 22.264-16.658 42.462-33.493 57.852 11.414 3.271 20.138 12.503 22.759 24.085s-1.28 23.669-10.174 31.536l-49.777 44.145c17.429 18.975 33.883 37.874 49.098 56.503 29.911-43.692 62.984-85.132 98.953-123.988l-47.266-41.912c-8.803-7.815-12.603-19.835-9.896-31.29s11.488-20.5 22.857-23.547l10.278-2.755c-10.552-22.28-13.175-47.494-7.437-71.467 7.801-24.271 25.67-44.009 49.048-54.18 15.77-6.53 28.097-19.347 34.013-35.357 5.914-16.010 4.878-33.763-2.859-48.978-3.709-8.663 0.308-18.691 8.973-22.4 8.663-3.709 18.691 0.308 22.4 8.971 11.136 23.231 12.391 49.983 3.479 74.154-8.913 24.173-27.234 43.706-50.785 54.148-14.804 6.016-26.294 18.127-31.522 33.228-3.651 18.041-0.846 36.792 7.927 52.974l18.255-4.892c11.374-3.053 23.503 0.39 31.578 8.961 8.075 8.573 10.786 20.886 7.057 32.056l-19.975 59.924c73.011 22.831 215.173 75.066 285.575 153.488 7.221 7.581 14.171 15.352 20.526 23.065 14.369 17.152 27.264 35.485 38.552 54.803 46.237 79.65 52 157.979 15.814 214.891zM470.843 277.022l-58.812-15.76 17.477 52.422 41.334-36.662zM416.288 363.006v0c-70.49 21.526-218.868 74.064-289.483 152.877-6.106 6.248-12.337 13.253-19.669 22.126-13.741 16.272-26.028 33.719-36.72 52.138-40.835 70.24-47.256 140.297-17.152 187.446 23.423 34.655 61.191 56.937 102.853 60.677 49.941 3.619 98.699-16.34 131.767-53.938 4.306-4.53 10.746-6.342 16.782-4.722s10.704 6.41 12.165 12.485c9.776 49.108 42.008 90.79 87.075 112.608 38.004 17.621 81.919 17.212 119.589-1.116 18.555-10.112 34.253-24.753 45.629-42.562-22.404-0.968-44.333-6.763-64.288-16.992-59.812-31.212-93.991-101.928-93.757-194.019 0.104-22.334 2.103-44.619 5.974-66.617 1.657-9.97 3.791-20.168 6.14-29.865 10.67-43.162 28.327-84.288 52.272-121.75-18.043-22.572-37.672-45.585-59.178-68.776zM572.213 212.52l38.052 33.745 16.086-48.258-54.138 14.513zM955.146 513.457c-10.342-17.681-22.158-34.461-35.321-50.155-5.906-7.181-12.303-14.321-19.301-21.676-67.259-74.914-209.248-125.311-277.054-146.069-48.332 51.881-146.105 166.546-166.995 265.516-2.275 9.372-4.24 18.751-5.782 28.039-3.545 20.134-5.382 40.533-5.49 60.977v0.008c-0.192 77.747 27.998 138.938 75.43 163.689 17.663 8.983 37.23 13.579 57.045 13.403 19.707-0.006 39.185-4.204 57.145-12.311 43.156-20.864 74.034-60.753 83.419-107.76 1.469-6.072 6.138-10.854 12.171-12.471s12.467 0.192 16.776 4.716c31.618 36.032 78.313 55.139 126.119 51.605 39.845-3.581 75.966-24.895 98.363-58.044 28.691-45.125 22.51-112.216-16.524-179.467zM889.061 722.171c-5.886 1.577-12.167-0.106-16.478-4.414-4.308-4.31-5.992-10.59-4.414-16.478 1.577-5.886 6.176-10.484 12.061-12.061 16.66-4.152 31.242-14.221 41.027-28.331 3.269-5.146 9.033-8.157 15.122-7.899s11.58 3.745 14.403 9.147c2.823 5.402 2.549 11.902-0.72 17.048-14.419 21.278-36.11 36.566-61.001 42.99zM653.741 772.078c-13.377 12.207-29.485 21.032-46.974 25.732-9.105 2.429-18.455-2.983-20.884-12.087s2.983-18.455 12.087-20.884c12.205-3.283 23.445-9.444 32.78-17.967 6.552-6.042 12.145-13.045 16.594-20.768 3.065-5.268 8.709-8.501 14.802-8.479s11.716 3.291 14.744 8.581 3.007 11.792-0.058 17.060c-6.188 10.72-13.975 20.436-23.091 28.813z" />
<glyph unicode="&#xe935;" glyph-name="lamp" d="M304 128h-80c-8.837 0-16-7.163-16-16s7.163-16 16-16v0h80c8.837 0 16 7.163 16 16s-7.163 16-16 16v0zM368 128h-16c-8.837 0-16-7.163-16-16s7.163-16 16-16v0h16c8.837 0 16 7.163 16 16s-7.163 16-16 16v0zM926 944h-894c-8.837 0-16-7.163-16-16s7.163-16 16-16v0h272v-80c0-8.837 7.163-16 16-16v0h176v-320h-16c-8.837 0-16-7.163-16-16v0-51.1c-181.535-24.602-319.984-178.58-320-364.898v-0.002c0-8.837 7.163-16 16-16v0h241.16c8.098-54.587 54.633-95.994 110.84-95.994s102.742 41.408 110.765 95.382l0.075 0.612h241.16c8.837 0 16 7.163 16 16v0c-0.016 186.32-138.465 340.298-318.096 364.688l-1.904 0.212v51.1c0 8.837-7.163 16-16 16v0h-16v320h176c8.837 0 16 7.163 16 16v0 80h206c8.837 0 16 7.163 16 16s-7.163 16-16 16v0zM512-16c-38.506 0.048-70.646 27.246-78.307 63.477l-0.093 0.523h156.8c-7.754-36.754-39.894-63.952-78.395-64h-0.005zM542.56 398.62c166.459-15.653 296.814-150.69 305.029-317.837l0.031-0.783h-671.24c8.246 167.93 138.601 302.967 303.718 318.518l1.342 0.102c8.195 0.763 14.56 7.605 14.56 15.935 0 0.002 0 0.003 0 0.005v0 49.44h32v-49.44c0-0.001 0-0.003 0-0.005 0-8.33 6.365-15.173 14.497-15.93l0.063-0.005zM688 848h-352v64h352zM992 944h-16c-8.837 0-16-7.163-16-16s7.163-16 16-16v0h16c8.837 0 16 7.163 16 16s-7.163 16-16 16v0z" />
<glyph unicode="&#xe936;" glyph-name="scooter" d="M437.063 100.094c-5.266 0-10.422-2.141-14.141-5.859s-5.859-8.883-5.859-14.141 2.141-10.422 5.859-14.141c3.719-3.719 8.875-5.859 14.141-5.859 5.258 0 10.414 2.141 14.141 5.859 3.719 3.719 5.859 8.859 5.859 14.141 0 5.258-2.141 10.422-5.859 14.141-3.727 3.719-8.883 5.859-14.141 5.859zM835.414 435.867l-46.609 210.57c12.578 1.703 23.672 8.102 31.477 17.367 9.211-5.758 20.078-9.102 31.719-9.102h40c11.047 0 20 8.953 20 20v80c0 11.047-8.953 20-20 20h-40c-11.984 0-23.156-3.547-32.539-9.633-9.156 10.352-22.523 16.898-37.398 16.898h-118.063c-21.211 0-39.367-13.305-46.594-32h-47.406c-28.672 0-52-23.328-52-52s23.328-52 52-52h102.945v-40.305c0-11.047 8.953-20 20-20s20 8.953 20 20v40.305h35l50.203-226.836-95.016-169.234c-10.383-18.422-29.961-29.867-51.109-29.867h-237.195c-9.93 83.273-80.93 148.063-166.828 148.063-38.008 0-73.867-12.383-103.703-35.805-0.039-0.031-0.078-0.063-0.117-0.094-35.523-27.938-57.852-68.031-63.055-112.164h-41.078c2.609 143.781 120.383 259.938 264.766 259.938h141.875c11.195 0 20.313-9.117 20.313-20.32v-179.617c0-11.047 8.953-20 20-20h106.422c43.414 0 83.422 23.609 104.406 61.602 9.711 17.578 14.859 37.484 14.875 57.555l0.102 66.445c0.016 11.047-8.93 20.016-19.977 20.031-0.008 0-0.016 0-0.023 0-11.031 0-19.984-8.938-20-19.969l-0.102-66.461c-0.008-13.344-3.43-26.578-9.883-38.258-13.953-25.25-40.547-40.938-69.398-40.938h-86.422v159.617c0 10.242-2.578 19.898-7.102 28.359 17.969 10.383 30.094 29.789 30.094 51.984 0 33.086-26.922 60-60 60h-73c-7.016 0-13.742-1.219-20-3.438v175.438c0 33.086-26.922 60-60 60h-129.023c-93.531 0-171.313-68.672-185.609-158.234-0.602-1.906-0.93-3.93-0.93-6.031 0-0.125 0.016-0.242 0.016-0.359-0.953-7.656-1.445-15.445-1.445-23.344v-104.039c0-30.039 22.195-54.992 51.047-59.328l44.289-44.289c-58.68-55.594-95.336-134.203-95.336-221.227v-15.117c0-11.047 8.953-20 20-20h112.398c-0.258-1.289-0.398-2.633-0.398-4 0-29.023 10.742-55.578 28.43-75.938h-140.43c-11.047 0-20-8.961-20-20 0-11.047 8.953-20 20-20h225.688c0.773-0.023 1.539-0.063 2.313-0.063 63.961 0 116 52.039 116 116 0 1.367-0.141 2.711-0.398 4h288.422c31.492 0 60.922 15.094 79.367 40.063h25.328c-5.695-13.859-8.719-28.797-8.719-44.063 0-29.023 10.742-55.578 28.43-75.938h-259.367c-11.047 0-20-8.961-20-20 0-11.047 8.953-20 20-20h344.625c0.773-0.023 1.539-0.063 2.313-0.063 63.961 0 116 52.039 116 116 0 15.266-3.023 30.203-8.719 44.063h32.719c11.047 0 20 8.953 20 20 0 105.57-83.945 191.906-188.586 195.773zM396.992 559.992h73c11.023 0 20-8.969 20-20 0-11.023-8.977-20-20-20h-73c-11.031 0-20 8.977-20 20 0 11.031 8.969 20 20 20zM40 644.031c0 1.234 0.063 2.461 0.094 3.695h218.852c11.047 0 20 8.953 20 20s-8.953 20-20 20h-212.352c18.688 60.328 74.992 104.266 141.375 104.266h129.016c11.031 0 20-8.969 20-20v-232c0-11.023-8.969-20-20-20h-256.977s-0.008 0-0.016 0c-11.023 0-19.992 8.977-19.992 20zM108.289 479.992h45.766c-9.609-5.484-18.883-11.492-27.805-17.961zM324 176.031c0-41.648-33.68-75.563-75.227-75.977-0.258 0.008-0.516 0.039-0.773 0.039h-2.305c-40.844 1.227-73.695 34.805-73.695 75.938 0 1.367-0.141 2.711-0.398 4h152.797c-0.258-1.289-0.398-2.633-0.398-4zM121.484 220.031c4.953 31.773 21.641 60.477 47.414 80.719 0.063 0.039 0.117 0.094 0.18 0.133 22.703 17.797 49.992 27.211 78.922 27.211 63.813 0 116.867-46.914 126.5-108.063zM852 734.703h20v-40h-20c-11.031 0-20 8.969-20 20 0 11.023 8.969 20 20 20zM558 697.969c0 6.617 5.383 12 12 12h44.063v-14.063c0-3.406 0.344-6.727 0.992-9.938h-45.055c-6.617 0-12 5.383-12 12zM692.945 685.969h-28.945c-5.477 0-9.938 4.453-9.938 9.938v36.125c0 5.477 4.461 9.938 9.938 9.938h118.063c5.477 0 9.938-4.461 9.938-9.938v-36.125c0-5.484-4.461-9.938-9.938-9.938zM940 176.031c0-41.648-33.68-75.563-75.227-75.977-0.258 0.008-0.516 0.039-0.773 0.039h-2.305c-40.844 1.227-73.695 34.805-73.695 75.938 0 15.891 4.953 31.25 14.078 44.063h123.844c9.125-12.813 14.078-28.172 14.078-44.063zM754.727 260.094l76.266 135.836c77.883-1.43 142.008-60.219 151.727-135.836zM692.945 505.664c11.047 0 20 8.953 20 20s-8.953 20-20 20h-0.070c-11.047 0-19.969-8.953-19.969-20s8.992-20 20.039-20z" />
<glyph unicode="&#xe937;" glyph-name="gift" d="M448.384 727.847c5.35 0 10.393 2.526 13.589 6.815 3.205 4.29 4.199 9.83 2.675 14.964-12.157 41.513-33.166 79.896-61.595 112.491-22.906 24.371-56.999 34.806-89.618 27.427-4.505-1.722-8.058-5.283-9.78-9.788-0.936-2.534-1.631-5.151-2.070-7.817-0.522-3.163-0.803-6.36-0.853-9.565v-0.273c0.207-27.046 11.105-52.916 30.325-71.955 32.594-28.404 70.953-49.405 112.441-61.554 1.59-0.472 3.23-0.729 4.886-0.745zM355.106 814.161c-6.733 6.741-12.016 14.798-15.535 23.659v0.166c-0.745 1.88-1.391 3.768-1.946 5.581-0.29 0.985-0.497 1.913-0.745 2.882-0.257 0.969-0.48 1.698-0.646 2.542-0.174 0.853-0.207 1.192-0.323 1.797-0.497 2.534-0.845 5.093-1.035 7.668 16.728-1.267 32.437-8.488 44.296-20.355 16.86-19.063 30.45-40.785 40.213-64.295-23.535 9.797-45.289 23.436-64.361 40.354zM968.878 716.146h-261.791c11.32 7.735 21.953 16.438 31.766 26.003 60.668 60.85 62.655 153.11 23.899 191.865s-130.983 36.801-191.898-23.932c-24.91-27.112-45.149-58.167-59.889-91.904-14.74 33.762-34.996 64.833-59.93 91.954-60.85 60.668-153.101 62.655-191.865 23.899-38.772-38.756-36.768-131.016 23.908-191.882 9.821-9.565 20.454-18.268 31.766-26.003h-261.791c-9.366 0-16.96-7.594-16.96-16.96v-169.597c0-9.366 7.594-16.96 16.96-16.96h33.919v-491.832c0.058-46.805 37.994-84.741 84.799-84.799h678.39c46.813 0.058 84.749 37.994 84.799 84.799v491.832h33.919c9.366 0 16.96 7.594 16.96 16.96v169.597c0 9.366-7.594 16.96-16.96 16.96zM594.853 886.116c48.743 48.594 119.836 48.031 143.934 23.932s24.678-95.158-23.916-143.918c-22.251-20.57-47.658-37.439-75.251-49.985h-101.344c0 0.356 0 0.745 0 1.101 0 3.867-0.29 7.784-0.662 11.726-0.141 1.3-0.29 2.592-0.439 3.917-0.389 3.254-0.87 6.501-1.449 9.73-0.182 1.135-0.373 2.277-0.571 3.395-0.812 4.223-1.698 8.38-2.716 12.397-0.132 0.58-0.29 1.085-0.422 1.698-0.903 3.511-1.83 6.782-2.782 10.169-0.132 0.464-0.257 0.969-0.389 1.433 13.896 42.267 36.371 81.221 66.009 114.404zM578.804 546.548h-135.678v135.678h135.678zM307.075 766.114c-48.602 48.759-48.031 119.82-23.924 143.934 24.098 24.115 95.158 24.678 143.885-23.883 30.855-34.565 53.985-75.325 67.839-119.546 1.913-5.954 3.387-11.668 4.778-17.216 0.389-1.59 0.712-3.13 1.052-4.695 0.919-4.141 1.656-8.091 2.211-11.875 0.182-1.284 0.422-2.609 0.571-3.859 0.538-4.232 0.828-8.496 0.87-12.761h-122.047c-27.576 12.521-52.974 29.365-75.234 49.902zM70.012 682.226h339.195v-135.678h-339.195zM120.891 20.797v491.832h322.235v-542.712h-271.356c-28.098 0-50.879 22.781-50.879 50.879zM477.045-30.083v542.712h67.839v-542.712zM901.039 20.797c0-28.098-22.773-50.879-50.879-50.879h-271.356v542.712h322.235zM951.918 546.548h-339.195v135.678h339.195zM573.496 727.797c1.631 0 3.254 0.232 4.82 0.696 41.538 12.14 79.938 33.182 112.524 61.67 24.131 23.079 34.532 57.032 27.477 89.668-1.706 4.488-5.259 8.033-9.747 9.747-32.636 7.056-66.589-3.346-89.668-27.477-28.479-32.586-49.521-70.986-61.67-112.524-1.515-5.134-0.53-10.683 2.675-14.964 3.205-4.29 8.24-6.815 13.589-6.815zM642.883 838.118c11.875 11.859 27.601 19.071 44.329 20.355-1.267-16.736-8.488-32.47-20.347-44.345-19.080-16.976-40.867-30.64-64.452-40.437 9.805 23.585 23.485 45.356 40.47 64.427z" />
<glyph unicode="&#xe938;" glyph-name="destination" d="M187.733 4.267c5.175 0 10.075 2.358 13.308 6.4 7.175 8.875 174.425 218.742 174.425 317.867 0 103.683-84.050 187.733-187.733 187.733s-187.733-84.050-187.733-187.733c0-99.125 167.25-308.908 174.425-317.867 3.233-4.042 8.133-6.4 13.308-6.4zM187.733 482.133c84.792-0.092 153.508-68.808 153.6-153.6 0-66.217-100.883-211.008-153.6-279.533-52.717 68.5-153.6 213.283-153.6 279.533 0.092 84.792 68.808 153.508 153.6 153.6zM256 345.6c0 37.7-30.567 68.267-68.267 68.267s-68.267-30.567-68.267-68.267 30.567-68.267 68.267-68.267 68.267 30.567 68.267 68.267zM153.6 345.6c0 18.85 15.283 34.133 34.133 34.133s34.133-15.283 34.133-34.133-15.283-34.133-34.133-34.133-34.133 15.283-34.133 34.133zM887.467 601.6c4.975 0 9.692 2.167 12.933 5.942 12.667 14.692 123.6 145.642 123.6 215.925 0 75.408-61.125 136.533-136.533 136.533s-136.533-61.125-136.533-136.533c0-70.283 110.933-201.233 123.6-215.925 3.242-3.775 7.958-5.942 12.933-5.942zM887.467 925.867c56.533-0.058 102.342-45.867 102.4-102.4 0-43.25-65.158-132.367-102.4-178.158-37.258 45.792-102.4 134.825-102.4 178.158 0.058 56.533 45.867 102.342 102.4 102.4zM938.667 840.533c0 28.275-22.925 51.2-51.2 51.2s-51.2-22.925-51.2-51.2 22.925-51.2 51.2-51.2 51.2 22.925 51.2 51.2zM870.4 840.533c0 9.425 7.642 17.067 17.067 17.067s17.067-7.642 17.067-17.067-7.642-17.067-17.067-17.067-17.067 7.642-17.067 17.067zM870.4 533.333h17.067c9.425 0 17.067 7.642 17.067 17.067s-7.642 17.067-17.067 17.067h-17.067c-9.425 0-17.067-7.642-17.067-17.067s7.642-17.067 17.067-17.067zM648.533 430.933h34.508c9.425 0 17.067 7.642 17.067 17.067s-7.642 17.067-17.067 17.067h-34.783c-4.508-0.008-8.833-1.817-12.008-5.017s-4.95-7.542-4.917-12.050c0.058-9.45 7.75-17.075 17.2-17.067zM839.867 448c0-9.425 7.642-17.067 17.067-17.067h34.767c9.425 0 17.067 7.642 17.067 17.067s-7.642 17.067-17.067 17.067h-34.767c-9.425 0-17.067-7.642-17.067-17.067zM766.075 533.333h34.775c9.425 0 17.067 7.642 17.067 17.067s-7.642 17.067-17.067 17.067h-34.775c-9.433 0-17.067-7.642-17.067-17.067s7.633-17.067 17.067-17.067zM310.867-29.867h-34.783c-9.425 0-17.067-7.642-17.067-17.067s7.642-17.067 17.067-17.067h34.783c9.425 0 17.067 7.642 17.067 17.067s-7.642 17.067-17.067 17.067zM598.408 471.55c1.192 0 2.375 0.125 3.533 0.375 9.217 1.942 15.117 10.975 13.192 20.192-0.483 2.333-0.725 4.7-0.733 7.083-0.008 5.4 1.267 10.717 3.717 15.533 4.275 8.4 0.933 18.675-7.475 22.95-8.4 4.275-18.675 0.933-22.95-7.475-7.075-13.892-9.175-29.8-5.958-45.058 1.642-7.9 8.6-13.583 16.675-13.6zM752.642 430.933h34.783c9.425 0 17.067 7.642 17.067 17.067s-7.642 17.067-17.067 17.067h-34.783c-9.425 0-17.067-7.642-17.067-17.067s7.642-17.067 17.067-17.067zM661.742 533.333h34.783c9.425 0 17.067 7.642 17.067 17.067s-7.642 17.067-17.067 17.067h-34.783c-9.425 0-17.067-7.642-17.067-17.067s7.642-17.067 17.067-17.067zM493.092 236.767c1.35-0.35 2.75-0.517 4.142-0.517 7.833 0.017 14.65 5.35 16.542 12.942 2.208 8.775 6.367 16.942 12.167 23.892 4.1 4.65 5.35 11.15 3.283 16.983-2.067 5.842-7.142 10.1-13.25 11.133-6.1 1.025-12.292-1.333-16.158-6.167-9.142-10.908-15.692-23.742-19.15-37.55-1.108-4.392-0.417-9.050 1.917-12.933 2.325-3.892 6.108-6.692 10.508-7.783zM830.258-29.15c-3.667-0.483-7.358-0.725-11.058-0.717h-21.483c-9.433 0-17.067-7.642-17.067-17.067s7.633-17.067 17.067-17.067h21.483c5.133 0 10.267 0.333 15.358 0.992 9.35 1.208 15.95 9.767 14.75 19.117-1.208 9.35-9.767 15.95-19.117 14.742zM854.033 169.817c-11.292 3.417-23.033 5.142-34.833 5.117h-4.475c-9.425 0-17.067-7.642-17.067-17.067s7.642-17.067 17.067-17.067h4.475c8.433 0 16.825-1.242 24.9-3.683 1.608-0.5 3.283-0.75 4.967-0.75 8.458-0.008 15.65 6.183 16.9 14.55 1.242 8.375-3.833 16.392-11.933 18.842zM817.633 294.4c9.425 0 17.067 7.642 17.067 17.067s-7.642 17.067-17.067 17.067h-34.767c-9.425 0-17.067-7.642-17.067-17.067s7.642-17.067 17.067-17.067zM919.617 29.033c-8.583 3.867-18.683 0.050-22.558-8.533-3.975-8.825-9.433-16.908-16.125-23.9-4.383-4.375-6.050-10.775-4.358-16.725 1.692-5.958 6.475-10.533 12.492-11.95 6.025-1.425 12.35 0.525 16.525 5.092 9.383 9.783 17.033 21.108 22.6 33.467 3.85 8.592 0.017 18.683-8.575 22.55zM1009 376.733c-4.342 1.283-9.017 0.792-13-1.375-3.975-2.167-6.933-5.825-8.217-10.167-2.508-8.367-7.092-15.967-13.325-22.083-6.742-6.6-6.858-17.408-0.258-24.15s17.408-6.85 24.15-0.258c10.4 10.192 18.033 22.858 22.183 36.817 1.292 4.342 0.792 9.017-1.367 13-2.167 3.975-5.825 6.933-10.167 8.217zM989.525 408.233c6.742-0.008 12.85 3.958 15.6 10.108 2.742 6.15 1.617 13.342-2.883 18.358-9.742 10.833-22.075 19.008-35.842 23.758-8.917 3.067-18.625-1.683-21.692-10.6s1.683-18.625 10.6-21.692c8.267-2.842 15.667-7.75 21.5-14.267 3.242-3.608 7.867-5.667 12.717-5.667zM745.183 174.933h-34.767c-9.425 0-17.067-7.642-17.067-17.067s7.642-17.067 17.067-17.067h34.767c9.425 0 17.067 7.642 17.067 17.067s-7.642 17.067-17.067 17.067zM921.958 328.533h-34.783c-9.425 0-17.067-7.642-17.067-17.067s7.642-17.067 17.067-17.067h34.783c9.425 0 17.067 7.642 17.067 17.067s-7.642 17.067-17.067 17.067zM415.183-29.867h-34.767c-9.425 0-17.067-7.642-17.067-17.067s7.642-17.067 17.067-17.067h34.767c9.425 0 17.067 7.642 17.067 17.067s-7.642 17.067-17.067 17.067zM918.067 122.542c-5.325 7.792-15.958 9.792-23.758 4.467-7.792-5.325-9.792-15.958-4.467-23.758 5.45-7.983 9.492-16.842 11.942-26.192 1.333-6.108 5.9-11 11.908-12.75 6-1.75 12.475-0.075 16.883 4.367 4.4 4.433 6.025 10.925 4.233 16.917-3.417 13.183-9.075 25.683-16.742 36.95zM545.317 181.058c-8.108 4.042-15.2 9.842-20.775 16.983-5.783 7.45-16.508 8.792-23.95 3.008-7.45-5.775-8.792-16.5-3.017-23.95 8.742-11.217 19.892-20.325 32.633-26.642 8.408-3.925 18.417-0.408 22.525 7.917 4.108 8.317 0.808 18.4-7.417 22.683zM519.508-29.867h-34.817c-9.425 0-17.067-7.642-17.067-17.067s7.642-17.067 17.067-17.067h34.817c9.425 0 17.067 7.642 17.067 17.067s-7.642 17.067-17.067 17.067zM728.167-29.867h-34.767c-9.425 0-17.067-7.642-17.067-17.067s7.642-17.067 17.067-17.067h34.767c9.425 0 17.067 7.642 17.067 17.067s-7.642 17.067-17.067 17.067zM608.992 294.4c9.425 0 17.067 7.642 17.067 17.067s-7.642 17.067-17.067 17.067h-34.767c-9.425 0-17.067-7.642-17.067-17.067s7.642-17.067 17.067-17.067zM713.383 294.4c9.425 0 17.067 7.642 17.067 17.067s-7.642 17.067-17.067 17.067h-34.85c-9.425 0-17.067-7.642-17.067-17.067s7.642-17.067 17.067-17.067zM640.867 174.933h-34.775c-9.425 0-17.067-7.642-17.067-17.067s7.642-17.067 17.067-17.067h34.775c9.433 0 17.067 7.642 17.067 17.067s-7.633 17.067-17.067 17.067zM623.858-29.867h-34.783c-9.425 0-17.067-7.642-17.067-17.067s7.642-17.067 17.067-17.067h34.783c9.425 0 17.067 7.642 17.067 17.067s-7.642 17.067-17.067 17.067zM204.8-29.867h-17.067c-9.425 0-17.067-7.642-17.067-17.067s7.642-17.067 17.067-17.067h17.067c9.425 0 17.067 7.642 17.067 17.067s-7.642 17.067-17.067 17.067z" />
<glyph unicode="&#xe939;" glyph-name="piece-of-cake" d="M1023.708 773.701c0.028 0.588 0.024 1.178-0.012 1.766-0.2 0.622-0.438 1.23-0.712 1.822-0.978 2.918-2.66 5.552-4.898 7.666-0.836 0.69-1.738 1.298-2.69 1.814-0.846 0.548-1.742 1.016-2.676 1.4-1.164 0.368-2.366 0.61-3.582 0.722-0.724 0.2-1.462 0.348-2.208 0.446-0.182 0-0.332-0.098-0.512-0.102-0.192-0.004-0.362 0.080-0.556 0.070l-596.537-37.244c-2.248 52.174-35.956 97.755-85.184 115.187 2.316 11.446 7.196 22.216 14.272 31.504 18.22 19.616 44.53 29.64 71.184 27.116 9.426 0 17.066 7.64 17.066 17.066s-7.638 17.066-17.064 17.066c-43.816 0-76.75-13.45-97.883-39.966-10.424-13.468-17.624-29.144-21.054-45.826-3.006 0.212-6.004 0.46-9.064 0.46-63.178-0.11-116.839-46.27-126.387-108.723-16.894 15.048-38.722 23.37-61.346 23.39-41.98-0.116-78.762-28.128-90.037-68.564-2.408-2.914-3.758-6.556-3.83-10.336v-571.881c0.004-111.683 99.529-202.549 221.871-202.549 1.018 0.106 2.024 0.31 3.004 0.606 2.942-0.876 6.086-0.808 8.988 0.194l778.237 247.299c0.26 0.082 0.432 0.286 0.686 0.38 1.114 0.466 2.174 1.054 3.158 1.754 3.796 2 6.454 5.644 7.196 9.87 0.36 1.136 0.596 2.306 0.704 3.492 0.012 0.27 0.156 0.498 0.156 0.772v571.895c-0.002 0.51-0.246 0.938-0.29 1.434zM196.703 786.873c15.504 32.834 48.59 53.746 84.9 53.662 1.824 0 3.608-0.17 5.406-0.274-0.138-12.648 1.056-25.276 3.56-37.676 1.778-7.746 8.668-13.242 16.616-13.25 1.29-0.004 2.576 0.142 3.834 0.434 9.186 2.108 14.924 11.262 12.818 20.448 0 0 0 0 0 0.002-1.338 7.048-2.16 14.184-2.462 21.35 46.77-22.084 66.78-77.902 44.696-124.671s-77.902-66.78-124.671-44.696c-46.77 22.084-66.782 77.902-44.696 124.671zM204.801-29.178c-95.549 7.766-170.665 80.034-170.665 167.733v461.047c38.658-57.582 101.523-94.325 170.665-99.749v-529.031zM219.537 533.45c-97.945 1.204-180.471 77.386-184.965 169.179 0.214 1.51 0.422 3.040 0.774 4.688 5.64 27.848 30.112 47.87 58.526 47.884 25.688-0.056 48.48-16.482 56.658-40.834 1.696-4.956 5.612-8.836 10.584-10.484 23.534-66.56 96.569-101.437 163.127-77.904 41.176 14.56 72.070 49.134 81.922 91.681l467.787 29.206-384.306-125.283c-0.244-0.080-0.404-0.274-0.642-0.364-1.098-0.472-2.142-1.064-3.114-1.764-3.8-1.984-6.45-5.632-7.162-9.86-0.368-1.15-0.608-2.338-0.714-3.542-0.010-0.248-0.142-0.456-0.142-0.706v-89.083c0-9.426-7.64-17.066-17.066-17.066s-17.066 7.64-17.066 17.066v66.738c0 9.426-7.642 17.066-17.066 17.066-9.426 0-17.066-7.642-17.066-17.066v-425.132c0-9.426-7.64-17.066-17.066-17.066s-17.066 7.64-17.066 17.066v402.948c-0.426 1.74-0.708 3.514-0.842 5.3-0.078 0.238-0.268 0.396-0.356 0.63-0.466 1.082-1.046 2.112-1.732 3.070-0.866 1.876-2.302 3.43-4.102 4.44-1.512 1.47-3.452 2.422-5.538 2.718-1.242 0.41-2.53 0.67-3.834 0.774-0.232 0.010-0.426 0.134-0.662 0.134-0.888-0.104-1.764-0.28-2.624-0.53-0.896-0.032-1.79-0.14-2.668-0.32l-133.579-43.584zM238.935 232.584v66.512l102.399 33.412v-66.512l-102.399-33.412zM341.334 230.108v-66.548l-102.399-33.37v66.506l102.399 33.412zM238.935 334.984v168.911l102.399 33.412v-168.911l-102.399-33.412zM989.864 212.856l-750.93-238.621v120.041l110.585 36.038c15.172-23.804 46.768-30.804 70.572-15.632 14.752 9.402 23.672 25.696 23.642 43.19v3.14l546.131 178.131v-126.287zM989.864 375.065l-546.131-178.135v66.48l546.131 178.131v-66.476zM989.864 477.465l-546.131-178.135v66.48l546.131 178.131v-66.476zM989.864 579.864l-546.131-178.135v66.486c5.466-2.024 11.24-3.088 17.066-3.146 28.264 0.030 51.17 22.936 51.2 51.2v76.688l477.863 155.791v-168.883z" />
</font>
</defs>
</svg>
